Голгофа / Calvary (Джон Майкл МакДона / John Michael McDonagh) [2014, Ирландия, Великобритания, драма, BDRip-AVC] MVO + VO (Д. Есарев) + Original Eng

Ответить на тему
 
Автор Сообщение

user ®

Стаж: 7 лет 7 месяцев

Сообщений: 20008

Пост Пост: #1 от 29-Июл-2014 00:55

[Цитировать]

Голгофа
Calvary

Страна: Ирландия, Великобритания
Жанр: драма
Год выпуска: 2014
Продолжительность: 01:41:30
Перевод: Профессиональный (многоголосый закадровый)
Перевод 2: Одноголосый закадровый Д. Есарев
Cубтитры: нет
Оригинальная аудиодорожка: английский
Режиссер: Джон Майкл МакДона/John Michael McDonagh
В ролях: Брендан Глисон, Крис О’Дауд, Келли Райлли, Эйден Гиллен, Дилан Моран, Исаак Де Банколе, М. Эммет Уолш, Мари-Жозе Кроз, Домналл Глисон, Дэвид Уилмо
Описание: Добродушному священнику угрожают на исповеди. С этого момента ему придется вступить в битву с темными силами, которые сгущаются вокруг него.

Сэмпл: http://sendfile.su/1005912
Качество видео: BDRip-AVC [Голгофа / Calvary (2014) 1080p BD-Remux.hdclub]
Формат видео: MKV
Видео: AVC, 1120 x 476 (2,35:1), 2683 kbps, 24,000 fps, 0,210 bpp
Аудио: AC3, 6ch, 48 kHz, 448 kbps, 16 bit
Аудио 2: AC3, 6ch, 48 kHz, 448 kbps, 16 bit
Аудио 3: AC3, 6ch, 48 kHz, 448 kbps, 16 bit
MediaInfo
Уникальный идентификатор : 192698324601611625818517273863783165102 (0x90F858EC7A0F4469A38D8FD8F38BACAE)
Полное имя : F:\Films\Golgofa\Golgofa.mkv
Формат : Matroska
Версия формата : Version 2
Размер файла : 2,86 Гбайт
Продолжительность : 1 ч. 41 м.
Общий поток : 4028 Кбит/сек
Дата кодирования : UTC 2014-07-27 18:59:13
Программа кодирования : mkvmerge v6.9.1 ('Blue Panther') 32bit built on Apr 18 2014 18:15:44
Библиотека кодирования : libebml v1.3.0 + libmatroska v1.4.1
Видео
Идентификатор : 1
Формат : AVC
Формат/Информация : Advanced Video Codec
Профиль формата : High@L4.1
Параметр CABAC формата : Да
Параметр ReFrames формата : 8 кадров
Идентификатор кодека : V_MPEG4/ISO/AVC
Продолжительность : 1 ч. 41 м.
Битрейт : 2683 Кбит/сек
Ширина : 1120 пикселей
Высота : 476 пикселей
Соотношение сторон : 2,35:1
Режим частоты кадров : Постоянный
Частота кадров : 24,000 кадра/сек
Цветовое пространство : YUV
Субдискретизация насыщенности : 4:2:0
Битовая глубина : 8 бит
Тип развёртки : Прогрессивная
Бит/(Пиксели*Кадры) : 0.210
Размер потока : 1,85 Гбайт (65%)
Библиотека кодирования : x264 core 138 r2358 9e941d1
Настройки программы : cabac=1 / ref=8 / deblock=1:-2:-1 / analyse=0x3:0x133 / me=umh / subme=9 / psy=1 / psy_rd=1.00:0.05 / mixed_ref=0 / me_range=32 / chroma_me=1 / trellis=2 / 8x8dct=1 / cqm=0 / deadzone=21,11 / fast_pskip=0 / chroma_qp_offset=-3 / threads=3 / lookahead_threads=1 / sliced_threads=0 / nr=0 / decimate=0 / interlaced=0 / bluray_compat=0 / constrained_intra=0 / bframes=12 / b_pyramid=2 / b_adapt=2 / b_bias=0 / direct=1 / weightb=1 / open_gop=0 / weightp=2 / keyint=240 / keyint_min=24 / scenecut=40 / intra_refresh=0 / rc=2pass / mbtree=0 / bitrate=2683 / ratetol=1.0 / qcomp=0.60 / qpmin=10 / qpmax=69 / qpstep=4 / cplxblur=20.0 / qblur=0.5 / ip_ratio=1.40 / pb_ratio=1.30 / aq=1:1.00
Язык : English
Default : Да
Forced : Нет
Аудио #1
Идентификатор : 2
Формат : AC-3
Формат/Информация : Audio Coding 3
Расширение режима : CM (complete main)
Параметр Endianness формата : Big
Идентификатор кодека : A_AC3
Продолжительность : 1 ч. 41 м.
Вид битрейта : Постоянный
Битрейт : 448 Кбит/сек
Каналы : 6 каналов
Расположение каналов : Front: L C R, Side: L R, LFE
Частота : 48,0 КГц
Битовая глубина : 16 бит
Метод сжатия : С потерями
Размер потока : 325 Мбайт (11%)
Заголовок : многоголосый закадровый
Язык : Russian
Default : Да
Forced : Нет
Аудио #2
Идентификатор : 3
Формат : AC-3
Формат/Информация : Audio Coding 3
Расширение режима : CM (complete main)
Параметр Endianness формата : Big
Идентификатор кодека : A_AC3
Продолжительность : 1 ч. 41 м.
Вид битрейта : Постоянный
Битрейт : 448 Кбит/сек
Каналы : 6 каналов
Расположение каналов : Front: L C R, Side: L R, LFE
Частота : 48,0 КГц
Битовая глубина : 16 бит
Метод сжатия : С потерями
Размер потока : 325 Мбайт (11%)
Заголовок : Есарев
Язык : Russian
Default : Нет
Forced : Да
Аудио #3
Идентификатор : 4
Формат : AC-3
Формат/Информация : Audio Coding 3
Расширение режима : CM (complete main)
Параметр Endianness формата : Big
Идентификатор кодека : A_AC3
Продолжительность : 1 ч. 41 м.
Вид битрейта : Постоянный
Битрейт : 448 Кбит/сек
Каналы : 6 каналов
Расположение каналов : Front: L C R, Side: L R, LFE
Частота : 48,0 КГц
Битовая глубина : 16 бит
Метод сжатия : С потерями
Размер потока : 325 Мбайт (11%)
Заголовок : английский
Язык : English
Default : Нет
Forced : Да
Меню
00:00:00.000 : en:00:00:00.000
00:09:51.125 : en:00:09:51.125
00:19:20.166 : en:00:19:20.166
00:28:08.208 : en:00:28:08.208
00:38:09.625 : en:00:38:09.625
00:47:33.041 : en:00:47:33.041
00:58:09.500 : en:00:58:09.500
01:04:43.291 : en:01:04:43.291
01:10:57.000 : en:01:10:57.000
01:19:39.166 : en:01:19:39.166
01:24:27.333 : en:01:24:27.333
01:29:28.500 : en:01:29:28.500
01:36:53.166 : en:01:36:53.166
Скриншот c названием фильма Скриншоты Награды
2014- Берлинский кинофестиваль: приз экуменического (христианского) жюри (программа «Панорама») - победитель
Возрастные ограничения
16+ : зрителям, достигшим 16 лет
Рейтинг МРАА: лицам до 17 лет обязательно присутствие взрослого
Скачать

Скачать торрент!

Как скачивать? · Что такое торрент? · Рейтинг и ограничения

Сайт не распространяет и не хранит электронные версии произведений, а лишь предоставляет доступ к создаваемому пользователями каталогу ссылок на торрент-файлы, которые содержат только списки хеш-сумм

[Профиль] [ЛС]
Показать сообщения:    
Ответить на тему

Текущее время: Сегодня 20:39

Часовой пояс: GMT + 4



Вы не можете начинать темы
Вы не можете отвечать на сообщения
Вы не можете редактировать свои сообщения
Вы не можете удалять свои сообщения
Вы не можете голосовать в опросах
Вы не можете прикреплять файлы к сообщениям
Вы не можете скачивать файлы