Саботаж / Sabotage (Дэвид Эйр / David Ayer) [2014, США, боевик, триллер, драма, BDRip] Dub

Ответить на тему
 
Автор Сообщение

user ®

Стаж: 7 лет 7 месяцев

Сообщений: 20008

Пост Пост: #1 от 29-Июл-2014 00:55

[Цитировать]

СаботажSabotage«Неудержимые снова в деле»- Страна: США
Жанр: боевик, триллер, драма, криминал
Год выпуска: 2014
Продолжительность: 01:48:55-Перевод: Профессиональный (полное дублирование)
Субтитры: нет
Режиссер: Дэвид Эйр / David Ayer
В ролях: Арнольд Шварценеггер (John «Breacher» Wharton), Сэм Уортингтон (James «Monster» Murray), Оливия Уильямс (Caroline), Терренс Ховард (Julius «Sugar» Edmonds), Джо Манганьелло (Joe «Grinder» Phillips), Джош Холлоуэй (Eddie «Neck» Jordan), Мирей Инос (Lizzy Murray), Мартин Донован (Floyd Demel), Макс Мартини (Tom «Pyro» Roberts), Кевин Вэнс (Bryce «Tripod» McNeely), Марк Шлегель («Smoke» Jennings), Нед Юсеф (Dubai Money Launderer)
Дублёры: Сергей Чихачев (John «Breacher» Wharton), Пётр Иващенко (James «Monster» Murray), Любовь Германова (Caroline), Илья Исаев (Julius «Sugar» Edmonds), Александр Головчанский (Joe «Grinder» Phillips), Денис Некрасов (Eddie «Neck» Jordan), Екатерина Семенова (Lizzy Murray), Василий Дахненко (Floyd Demel)-Описание: История начинается с операции элитного подразделения из управления по борьбе с наркотиками, нагрянувшего на явочную квартиру наркокартеля. Команда решает скрыть от начальства, что в результате налёта они обогатились на миллионы долларов, но вскоре хранить тайну становится всё сложнее: кто-то по одному убирает всех участвовавших в операции.-
MPAA: R - Лицам до 17 лет обязательно присутствие взрослого-Качество: BDRip | BD RUS TRANSFER HD CLUB| SAMPLE
Контейнер: AVI
Видео: XviD, 720x400 (16:9), 1464 kbps, 24 fps, 0,212 bpp
Аудио: AC3 / 5.1 / 48 kHz / 448 kbps / 16 bit-Скриншоты Media Info
General
Complete name : E:\my_rip\Sabotaj.2014.BDRip.by.Дядя_Лёша.avi
Format : AVI
Format/Info : Audio Video Interleave
File size : 1.46 GiB
Duration : 1h 48mn
Overall bit rate : 1 922 Kbps
Writing application : VirtualDubMod 1.5.10.3 | www.virtualdub-fr.org || (build 2550/release)
Writing library : VirtualDubMod build 2550/release
Video
ID : 0
Format : MPEG-4 Visual
Format profile : Advanced Simple@L5
Format settings, BVOP : 1
Format settings, QPel : No
Format settings, GMC : No warppoints
Format settings, Matrix : Custom
Codec ID : XVID
Codec ID/Hint : XviD
Duration : 1h 48mn
Bit rate : 1 465 Kbps
Width : 720 pixels
Height : 400 pixels
Display aspect ratio : 16:9
Frame rate : 24.000 fps
Color space : YUV
Chroma subsampling : 4:2:0
Bit depth : 8 bits
Scan type : Progressive
Compression mode : Lossy
Bits/(Pixel*Frame) : 0.212
Stream size : 1.11 GiB (76%)
Writing library : XviD 65
Audio
ID : 1
Format : AC-3
Format/Info : Audio Coding 3
Mode extension : CM (complete main)
Codec ID : 2000
Duration : 1h 48mn
Bit rate mode : Constant
Bit rate : 448 Kbps
Channel(s) : 6 channels
Channel positions : Front: L C R, Side: L R, LFE
Sampling rate : 48.0 KHz
Bit depth : 16 bits
Compression mode : Lossy
Stream size : 349 MiB (23%)
Alignment : Split accross interleaves
Interleave, duration : 42 ms (1.00 video frame)
Interleave, preload duration : 500 ms
Скачать

Скачать торрент!

Как скачивать? · Что такое торрент? · Рейтинг и ограничения

Сайт не распространяет и не хранит электронные версии произведений, а лишь предоставляет доступ к создаваемому пользователями каталогу ссылок на торрент-файлы, которые содержат только списки хеш-сумм

[Профиль] [ЛС]

Valdemar-olvi

Пол:

Стаж: 4 года

Сообщений: 9

Откуда: Украина

Пост Пост: #2 от 01-Авг-2014 15:19 (спустя 3 дня)

[Цитировать]

Спасибо за раздачу, посмотрим!!!
[Профиль] [ЛС]
Показать сообщения:    
Ответить на тему

Текущее время: Сегодня 16:40

Часовой пояс: GMT + 4



Вы не можете начинать темы
Вы не можете отвечать на сообщения
Вы не можете редактировать свои сообщения
Вы не можете удалять свои сообщения
Вы не можете голосовать в опросах
Вы не можете прикреплять файлы к сообщениям
Вы не можете скачивать файлы