Влюблённый / Man in Love (Хан Дон Ук / Han Dong Wook) [2014, Южная Корея, драма, криминал, DVDRip] Sub Rus

Ответить на тему
 
Автор Сообщение

user ®

Стаж: 13 лет

Сообщений: 15071

Пост Пост: #1 от 28-Июл-2014 21:45

[Цитировать]

Влюблённый / Man in Love
Страна: Южная Корея
Жанр: драма, криминал
Год выпуска: 2014
Продолжительность: 02:00:05
Перевод: Субтитры
Cубтитры: Русские
Режиссер: Хан Дон Ук
В ролях: Хван Джун Мин,
Хан Хе Джун, Ква До Вон, Джун Ман Сик.
Описание: Тэ Иль, живет жизнью бандита выбивая долги из простых жителей. Но однажды он узнаёт, что неизлечимо болен. И надо же было такому случиться, именно сейчас, он находит свою любовь.
Сэмпл
Качество видео: DVDRip
Формат видео: AVI
Видео: 800x336 (2.38:1), 23.976 fps, XviD MPEG-4 ~1990 kbps avg, 0.31 bit/pixel
Аудио: 48 kHz, AC3 Dolby Digital, 3/2 (L,C,R,l,r) + LFE ch, ~448 kbps
Формат субтитров: softsub (SSA/ASS)
MediaInfo
Format : AVI
Format/Info : Audio Video Interleave
Format profile : OpenDML
File size : 2.05 GiB
Duration : 2h 0mn
Overall bit rate : 2 445 Kbps
Writing application : VirtualDubMod 1.5.10.2 (build 2540/release)
Writing library : VirtualDubMod build 2540/release
Video
ID : 0
Format : MPEG-4 Visual
Format profile : Advanced Simple@L5
Format settings, BVOP : 2
Format settings, QPel : No
Format settings, GMC : No warppoints
Format settings, Matrix : Default (H.263)
Muxing mode : Packed bitstream
Codec ID : XVID
Codec ID/Hint : XviD
Duration : 2h 0mn
Bit rate : 1 985 Kbps
Width : 800 pixels
Height : 336 pixels
Display aspect ratio : 2.40:1
Frame rate : 23.976 fps
Color space : YUV
Chroma subsampling : 4:2:0
Bit depth : 8 bits
Scan type : Progressive
Compression mode : Lossy
Bits/(Pixel*Frame) : 0.308
Stream size : 1.67 GiB (81%)
Writing library : XviD 1.2.1 (UTC 2008-12-04)
Audio
ID : 1
Format : AC-3
Format/Info : Audio Coding 3
Mode extension : CM (complete main)
Format settings, Endianness : Big
Codec ID : 2000
Duration : 2h 0mn
Bit rate mode : Constant
Bit rate : 448 Kbps
Channel(s) : 6 channels
Channel positions : Front: L C R, Side: L R, LFE
Sampling rate : 48.0 KHz
Bit depth : 16 bits
Compression mode : Lossy
Stream size : 385 MiB (18%)
Alignment : Split accross interleaves
Interleave, duration : 42 ms (1.00 video frame)
Interleave, preload duration : 500 ms
Скриншот c названием фильма Скриншоты Пример субтитров
Dialogue: 0,0:34:40.87,0:34:42.90,Стиль,,0,0,0,,Ты не имеешь права игнорировать меня.
Dialogue: 0,0:34:43.18,0:34:46.70,Стиль,,0,0,0,,Было так трудно найти эту книгу!
Dialogue: 0,0:34:47.18,0:34:49.52,Стиль,,0,0,0,,Я обошел все магазины.
Dialogue: 0,0:34:49.52,0:34:53.45,Стиль,,0,0,0,,Что? Книга?\NТы больной на всю голову!
Dialogue: 0,0:34:56.92,0:34:58.45,Стиль,,0,0,0,,Отпусти меня!
Dialogue: 0,0:35:00.99,0:35:07.13,Стиль,,0,0,0,,Неужели ты ничего не чувствуешь в своём сердце?
Dialogue: 0,0:35:07.60,0:35:10.80,Стиль,,0,0,0,,Знаешь ли ты, что такое любовь?
Dialogue: 0,0:35:11.60,0:35:13.37,Стиль,,0,0,0,,Конечно - нет.
Dialogue: 0,0:35:13.91,0:35:17.17,Стиль,,0,0,0,,Я буду платить проценты,\Nтак что не звони мне больше.
Dialogue: 0,0:35:29.69,0:35:33.02,Стиль,,0,0,0,,Мы продолжим лечение, но шансов мало.
Dialogue: 0,0:35:37.73,0:35:39.96,Стиль,,0,0,0,,Как вас тут до фига...
Dialogue: 0,0:35:41.13,0:35:42.33,Стиль,,0,0,0,,Эй!
Dialogue: 0,0:35:44.14,0:35:46.66,Стиль,,0,0,0,,Скажу тебе честно,
Dialogue: 0,0:35:47.94,0:35:49.60,Стиль,,0,0,0,,я не люблю тебя.
Dialogue: 0,0:35:50.51,0:35:52.91,Стиль,,0,0,0,,Я забираю свои слова обратно!
Dialogue: 0,0:36:06.69,0:36:09.66,Стиль,,0,0,0,,{\i1}Компания "Дэсан"{\i}
Dialogue: 0,0:36:16.77,0:36:17.93,Стиль,,0,0,0,,- Приятного аппетита.\N- Спасибо.
Dialogue: 0,0:36:20.54,0:36:22.34,Стиль,,0,0,0,,- Обедать будешь?\N- Не-не, не буду.
Dialogue: 0,0:36:29.62,0:36:31.05,Стиль,,0,0,0,,- Мисс Ли?\N- Да?
Dialogue: 0,0:36:31.05,0:36:33.19,Стиль,,0,0,0,,Случай с больницей...
Dialogue: 0,0:36:33.19,0:36:36.42,Стиль,,0,0,0,,Где договор госпожи Ю?
Dialogue: 0,0:36:36.42,0:36:38.98,Стиль,,0,0,0,,Это... Господин Хан...
Dialogue: 0,0:36:41.73,0:36:44.72,Стиль,,0,0,0,,Господин Хан взял его себе, как бонус.
Dialogue: 0,0:36:48.03,0:36:49.06,Стиль,,0,0,0,,А что?
Dialogue: 0,0:36:49.60,0:36:50.77,Стиль,,0,0,0,,Ничего.
Dialogue: 0,0:36:50.77,0:36:54.60,Стиль,,0,0,0,,Эй! Зачем ты его искал?
Dialogue: 0,0:36:55.84,0:37:01.08,Стиль,,0,0,0,,Мне сообщили, что господин Ю скончался.
Dialogue: 0,0:37:01.08,0:37:03.17,Стиль,,0,0,0,,Я хотел пересмотреть...
Dialogue: 0,0:37:03.68,0:37:05.58,Стиль,,0,0,0,,Я не знал, что договор у вас.
Dialogue: 0,0:38:02.48,0:38:03.74,Стиль,,0,0,0,,Ты что ни будь ела?
Dialogue: 0,0:38:06.65,0:38:08.65,Стиль,,0,0,0,,Почему так поздно?\NНеси сюда.
Dialogue: 0,0:38:08.65,0:38:09.72,Стиль,,0,0,0,,Там поставь.
Dialogue: 0,0:38:09.72,0:38:11.92,Стиль,,0,0,0,,Нет, это я не тебе.
Dialogue: 0,0:38:11.92,0:38:14.39,Стиль,,0,0,0,,Да, похоронное агентство "Семанкум".
Dialogue: 0,0:38:14.39,0:38:17.02,Стиль,,0,0,0,,Ладно.
Dialogue: 0,0:38:17.09,0:38:17.99,Стиль,,0,0,0,,Ага.
Скачать

Скачать торрент! Влюблённый / Man in Love (Хан Дон Ук / Han Dong Wook) [2014, Южная Корея, драма, криминал, DVDRip] Sub Rus

Как скачивать? · Что такое торрент? · Рейтинг и ограничения

Сайт не распространяет и не хранит электронные версии произведений, а лишь предоставляет доступ к создаваемому пользователями каталогу ссылок на торрент-файлы, которые содержат только списки хеш-сумм

[Профиль] [ЛС]
Показать сообщения:    
Ответить на тему

Текущее время: Сегодня 21:44

Часовой пояс: GMT + 4



Вы не можете начинать темы
Вы не можете отвечать на сообщения
Вы не можете редактировать свои сообщения
Вы не можете удалять свои сообщения
Вы не можете голосовать в опросах
Вы не можете прикреплять файлы к сообщениям
Вы не можете скачивать файлы