Форт Росс: В поисках приключений (Юрий Мороз) [2014, Приключения, WEB-DLRip]

Ответить на тему
 
Автор Сообщение

user ®

Стаж: 7 лет 7 месяцев

Сообщений: 20008

Пост Пост: #1 от 28-Июл-2014 21:45

[Цитировать]

Форт Росс: В поисках приключений- Страна: Россия
Жанр: приключения
Год выпуска: 2014
Продолжительность: 01:33:03-Перевод: Не требуется
Субтитры: нет
Режиссер: Юрий Мороз
В ролях: Максим Матвеев, Анна Старшенбаум, Лайа Коста, Алексей Кирсанов, Максим Виноградов, Артем Ткаченко, Илья Соболев, Александр Петров, Маруся Климова, Кирилл Плетнёв-Описание: Раскрыта одна из главных интриг российской истории! Как вышло, что в XIX веке Россия навсегда лишилась своих земель в Северной Америке? Ведь ей принадлежала огромная территория от Аляски до Северной Калифорнии! В поисках ответа группа тележурналистов - интеллектуал Дмитрий, простодушный Фимка и красавица Марго - путешествуют во времени и пространстве, попадая то в царские дворцы, то в вигвамы индейцев.- -Качество: WEB-DLRip | WEB-DL 720p | sample
Контейнер: AVI
Видео: XviD, 688x288 (2.40:1), 981 kbps, 23,976 fps, 0,207 bpp
Аудио: MP3 / 2.0 / 48 kHz / 128 kbps /-Скриншоты Media Info
General
Complete name : E:\my_rip\Fort.Ross.2014.WEBDLRip745.by.Дядя_Лёша.avi
Format : AVI
Format/Info : Audio Video Interleave
File size : 745 MiB
Duration : 1h 33mn
Overall bit rate : 1 119 Kbps
Writing application : VirtualDubMod 1.5.10.3 | www.virtualdub-fr.org || (build 2550/release)
Writing library : VirtualDubMod build 2550/release
Video
ID : 0
Format : MPEG-4 Visual
Format profile : Advanced Simple@L5
Format settings, BVOP : 1
Format settings, QPel : No
Format settings, GMC : No warppoints
Format settings, Matrix : Custom
Codec ID : XVID
Codec ID/Hint : XviD
Duration : 1h 33mn
Bit rate : 982 Kbps
Width : 688 pixels
Height : 288 pixels
Display aspect ratio : 2.40:1
Frame rate : 23.976 fps
Color space : YUV
Chroma subsampling : 4:2:0
Bit depth : 8 bits
Scan type : Progressive
Compression mode : Lossy
Bits/(Pixel*Frame) : 0.207
Stream size : 653 MiB (88%)
Writing library : XviD 65
Audio
ID : 1
Format : MPEG Audio
Format version : Version 1
Format profile : Layer 3
Mode : Joint stereo
Mode extension : MS Stereo
Codec ID : 55
Codec ID/Hint : MP3
Duration : 1h 33mn
Bit rate mode : Constant
Bit rate : 128 Kbps
Channel(s) : 2 channels
Sampling rate : 48.0 KHz
Compression mode : Lossy
Stream size : 85.2 MiB (11%)
Alignment : Aligned on interleaves
Interleave, duration : 42 ms (1.00 video frame)
Interleave, preload duration : 504 ms
Writing library : LAME3.99r
Encoding settings : -m j -V 4 -q 2 -lowpass 17 -b 128
Скачать

Скачать торрент!

Как скачивать? · Что такое торрент? · Рейтинг и ограничения

Сайт не распространяет и не хранит электронные версии произведений, а лишь предоставляет доступ к создаваемому пользователями каталогу ссылок на торрент-файлы, которые содержат только списки хеш-сумм

[Профиль] [ЛС]
Показать сообщения:    
Ответить на тему

Текущее время: Сегодня 00:26

Часовой пояс: GMT + 4



Вы не можете начинать темы
Вы не можете отвечать на сообщения
Вы не можете редактировать свои сообщения
Вы не можете удалять свои сообщения
Вы не можете голосовать в опросах
Вы не можете прикреплять файлы к сообщениям
Вы не можете скачивать файлы