Питер. Лето. Любовь (Андрей Хвостов) [2014, Россия, Великобритания, драма, мелодрама, WEB-DLRip]

Ответить на тему
 
Автор Сообщение

user ®

Стаж: 7 лет 7 месяцев

Сообщений: 20008

Пост Пост: #1 от 28-Июл-2014 18:35

[Цитировать]

Питер. Лето. Любовь«Белые ночи. Грязные танцы»- Страна: Россия, Великобритания
Жанр: драма, мелодрама
Год выпуска: 2014
Продолжительность: 01:23:05-Перевод: Оригинальный (русский) + Профессиональный (многоголосый, закадровый) на анг. речь
Режиссер: Андрей Хвостов
В ролях: Терри Суини, Надежда Толубеева, Константин Малышев, Леонид Мозговой, Джонатан Бенда, Катрин МакДонаф, Алессандра Джунтини, Николай Куглянт, Екатерина Тарасова, Елена Симонова-Описание: Двадцатипятилетний британец Эллиот, бросивший преподавание в школе танцев Оксфорда, решает кардинально изменить свою жизнь. Он отправляется в Санкт-Петербург, где живет его сводный брат Федор, с которым он никогда не виделся.
В Питере Эллиот начинает обучать танцам девушку Федора Аню, которая собирается поступать в Театральную академию. У Эллиота есть неделя, чтобы научить танцам подругу брата и разобраться с собственными чувствами к ней.- -Качество: WEB-DLRip | WEB-DL 720p | sample
Контейнер: AVI
Видео: XviD, 720x320 (2.25:1), 1114 kbps, 25 fps, 0,194 bpp
Аудио: MP3 / 2.0 / 48 kHz / 128 kbps /-Скриншоты Media Info
General
Complete name : E:\my_rip\Piter.leto.love.2014.WEBDLRip745.by.Дядя_Лёша.avi
Format : AVI
Format/Info : Audio Video Interleave
File size : 744 MiB
Duration : 1h 23mn
Overall bit rate : 1 253 Kbps
Writing application : VirtualDubMod 1.5.10.3 | www.virtualdub-fr.org || (build 2550/release)
Writing library : VirtualDubMod build 2550/release
Video
ID : 0
Format : MPEG-4 Visual
Format profile : Advanced Simple@L5
Format settings, BVOP : 1
Format settings, QPel : No
Format settings, GMC : No warppoints
Format settings, Matrix : Custom
Codec ID : XVID
Codec ID/Hint : XviD
Duration : 1h 23mn
Bit rate : 1 115 Kbps
Width : 720 pixels
Height : 320 pixels
Display aspect ratio : 2.25:1
Frame rate : 25.000 fps
Color space : YUV
Chroma subsampling : 4:2:0
Bit depth : 8 bits
Scan type : Progressive
Compression mode : Lossy
Bits/(Pixel*Frame) : 0.194
Stream size : 663 MiB (89%)
Writing library : XviD 65
Audio
ID : 1
Format : MPEG Audio
Format version : Version 1
Format profile : Layer 3
Mode : Joint stereo
Mode extension : MS Stereo
Codec ID : 55
Codec ID/Hint : MP3
Duration : 1h 23mn
Bit rate mode : Constant
Bit rate : 128 Kbps
Channel(s) : 2 channels
Sampling rate : 48.0 KHz
Compression mode : Lossy
Stream size : 76.1 MiB (10%)
Alignment : Aligned on interleaves
Interleave, duration : 40 ms (1.00 video frame)
Interleave, preload duration : 504 ms
Writing library : LAME3.99r
Encoding settings : -m j -V 4 -q 2 -lowpass 17 -b 128
Скачать

Скачать торрент!

Как скачивать? · Что такое торрент? · Рейтинг и ограничения

Сайт не распространяет и не хранит электронные версии произведений, а лишь предоставляет доступ к создаваемому пользователями каталогу ссылок на торрент-файлы, которые содержат только списки хеш-сумм

[Профиль] [ЛС]
Показать сообщения:    
Ответить на тему

Текущее время: Сегодня 12:32

Часовой пояс: GMT + 4



Вы не можете начинать темы
Вы не можете отвечать на сообщения
Вы не можете редактировать свои сообщения
Вы не можете удалять свои сообщения
Вы не можете голосовать в опросах
Вы не можете прикреплять файлы к сообщениям
Вы не можете скачивать файлы