Легенда о княгине Ольге (Юрий Ильенко) [1983 г., Исторический / Биографический, DVDRip-AVC]

Ответить на тему
 
Автор Сообщение

user ®

Стаж: 7 лет 7 месяцев

Сообщений: 20008

Пост Пост: #1 от 27-Июл-2014 12:15

[Цитировать]

-Легенда о княгине Ольге Страна: СССР
Жанр: Исторический / Биографический
Год выпуска: 1983
Продолжительность: 02:07:19-Оригинальная аудиодорожка: русский-Режиссер: Юрий Ильенко-В ролях-Людмила Ефименко, Лесь Сердюк, Ваня Иванов, Константин Степанков, Иван Миколайчук, Иван Гаврилюк, Николай Олялин, Дмитрий Миргородский, Светлана Ромашко, Георгий Морозюк, Леонид Оболенский, Александр Денисенко-Описание-В основе фильма легенды и сказания, воссоздающие образ княгини Ольги - государственной деятельницы Киевской Руси конца Х - начала XI века. Это рассказы трех, по-разному относящихся к Ольге людей: монаха Арефы, ключницы Малуши и внука Владимира Красное Солнышко.-Качество видео: DVDRip
Исходное видео: [url=http://***/forum/viewtopic.php?t=832034]DVD-9[/url]-Контейнер: MKV-Видео: AVC, 700x480@996x564 (2,074), ~2700 kbps, 25 fps,
Аудио: AC-3, 384 kbps, Dolby Digital, 3/2 (L,C,R,l,r) + LFE ch, 48 KHz |Оригинал|-

MediaInfo
x264
VIDEO ENCODING
------------------------------
Encoding video to: F:\Temp\0264.264
x264 Q17.9 700x480 25.000fps (190975 frames)
avs4x264.exe: -L x264_64.exe --crf 17.9 --preset veryslow --profile high --level 4.1 --aq-mode 2 --aq-strength 0.9 --deblock -3:-2 --merange 32 --bframes 12 --direct spatial --psy-rd 0.95:0.00 --qcomp 0.65 --vbv-maxrate 50000 --vbv-bufsize 62500 --subme 11 --no-mbtree --sar 64:45 --output "F:\Temp\0264.264" "F:\Temp\0264.avs"
raw [info]: 700x480p 64:45 @ 25/1 fps (cfr)
x264 [info]: using SAR=64/45
x264 [info]: using cpu capabilities: MMX2 SSE2Fast LZCNT
x264 [info]: profile High, level 4.1
x264 [info]: frame I:922 Avg QP:17.92 size: 41711
x264 [info]: frame P:34433 Avg QP:19.02 size: 24366
x264 [info]: frame B:155620 Avg QP:21.38 size: 11773
x264 [info]: consecutive B-frames: 0.6% 0.5% 2.3% 11.7% 13.8% 53.6% 8.8% 4.2% 2.5% 0.7% 0.5% 0.6% 0.1%
x264 [info]: mb I I16..4: 2.1% 92.7% 5.2%
x264 [info]: mb P I16..4: 0.5% 18.0% 0.5% P16..4: 30.9% 37.0% 12.3% 0.7% 0.0% skip: 0.0%
x264 [info]: mb B I16..4: 0.1% 2.5% 0.0% B16..8: 38.6% 25.4% 3.7% direct:20.7% skip: 9.0% L0:41.1% L1:35.3% BI:23.6%
x264 [info]: 8x8 transform intra:94.3% inter:77.1%
x264 [info]: coded y,uvDC,uvAC intra: 95.9% 94.6% 67.2% inter: 61.1% 77.7% 8.3%
x264 [info]: i16 v,h,dc,p: 8% 5% 2% 85%
x264 [info]: i8 v,h,dc,ddl,ddr,vr,hd,vl,hu: 11% 6% 5% 9% 12% 17% 12% 15% 13%
x264 [info]: i4 v,h,dc,ddl,ddr,vr,hd,vl,hu: 14% 6% 2% 8% 14% 19% 12% 14% 12%
x264 [info]: i8c dc,h,v,p: 37% 20% 21% 22%
x264 [info]: Weighted P-Frames: Y:54.1% UV:52.2%
x264 [info]: ref P L0: 33.1% 10.2% 12.7% 10.0% 6.4% 5.3% 4.1% 3.0% 2.5% 2.3% 2.1% 2.0% 1.7% 1.7% 1.6% 1.3%
x264 [info]: ref B L0: 68.4% 10.7% 5.5% 3.5% 2.3% 1.9% 1.6% 1.2% 1.0% 0.9% 0.8% 0.8% 0.7% 0.5% 0.2%
x264 [info]: ref B L1: 93.6% 6.4%
Формат : Matroska
Версия формата : Version 4 / Version 2
Размер файла : 2,87 Гбайт
Продолжительность : 2 ч. 7 м.
Общий поток : 3223 Кбит/сек
Название фильма : Легенда о княгине Ольге (1983) [torrents.ru]
Дата кодирования : UTC 2014-07-23 18:09:36
Программа кодирования : mkvmerge v6.1.0 ('Old Devil') built on Mar 4 2013 09:10:42
Библиотека кодирования : libebml v1.3.0 + libmatroska v1.4.0
Видео
Идентификатор : 1
Формат : AVC
Формат/Информация : Advanced Video Codec
Профиль формата : High@L4.1
Параметр CABAC формата : Да
Параметр ReFrames формата : 16 кадров
Идентификатор кодека : V_MPEG4/ISO/AVC
Продолжительность : 2 ч. 7 м.
Битрейт : 2775 Кбит/сек
Ширина : 700 пикселей
Высота : 480 пикселей
Соотношение сторон : 2,075
Соотношение сторон в оригинале : 2,074
Частота кадров : 25,000 кадров/сек
Цветовое пространство : YUV
Субдискретизация насыщенности : 4:2:0
Битовая глубина : 8 бит
Тип развёртки : Прогрессивная
Бит/(Пиксели*Кадры) : 0.330
Размер потока : 2,47 Гбайт (86%)
Заголовок : Легенда о княгине Ольге_1983_DVDRip_cw
Библиотека кодирования : x264 core 142 r2431 ac76440
Настройки программы : cabac=1 / ref=16 / deblock=1:-3:-2 / analyse=0x3:0x133 / me=umh / subme=11 / psy=1 / psy_rd=0.95:0.00 / mixed_ref=1 / me_range=32 / chroma_me=1 / trellis=2 / 8x8dct=1 / cqm=0 / deadzone=21,11 / fast_pskip=1 / chroma_qp_offset=-2 / threads=4 / lookahead_threads=1 / sliced_threads=0 / nr=0 / decimate=1 / interlaced=0 / bluray_compat=0 / constrained_intra=0 / bframes=12 / b_pyramid=2 / b_adapt=2 / b_bias=0 / direct=1 / weightb=1 / open_gop=0 / weightp=2 / keyint=250 / keyint_min=25 / scenecut=40 / intra_refresh=0 / rc_lookahead=60 / rc=crf / mbtree=0 / crf=17.9 / qcomp=0.65 / qpmin=0 / qpmax=69 / qpstep=4 / vbv_maxrate=50000 / vbv_bufsize=62500 / crf_max=0.0 / nal_hrd=none / filler=0 / ip_ratio=1.40 / pb_ratio=1.30 / aq=2:0.90
Язык : Russian
Default : Да
Forced : Нет
Аудио
Идентификатор : 2
Формат : AC-3
Формат/Информация : Audio Coding 3
Расширение режима : CM (complete main)
Параметр Endianness формата : Big
Идентификатор кодека : A_AC3
Продолжительность : 2 ч. 7 м.
Вид битрейта : Постоянный
Битрейт : 384 Кбит/сек
Каналы : 6 каналов
Расположение каналов : Front: L C R, Side: L R, LFE
Частота : 48,0 КГц
Битовая глубина : 16 бит
Метод сжатия : С потерями
Размер потока : 350 Мбайт (12%)
Язык : Russian
Default : Да
Forced : Нет
Скриншоты
Сравнение с исходником
Сравнение с AVI
http://screenshotcomparison.com/comparison/84835/picture:4 [url=http://***/forum/viewtopic.php?t=3102143]2.05GB[/url]
http://screenshotcomparison.com/comparison/84836/picture:2 [url=http://***/forum/viewtopic.php?t=4296383]1.45 GB[/url]
Скачать

Скачать торрент!

Как скачивать? · Что такое торрент? · Рейтинг и ограничения

Сайт не распространяет и не хранит электронные версии произведений, а лишь предоставляет доступ к создаваемому пользователями каталогу ссылок на торрент-файлы, которые содержат только списки хеш-сумм

[Профиль] [ЛС]
Показать сообщения:    
Ответить на тему

Текущее время: Сегодня 13:35

Часовой пояс: GMT + 4



Вы не можете начинать темы
Вы не можете отвечать на сообщения
Вы не можете редактировать свои сообщения
Вы не можете удалять свои сообщения
Вы не можете голосовать в опросах
Вы не можете прикреплять файлы к сообщениям
Вы не можете скачивать файлы