Странная парочка / Chogam Kakkeopeul / The ESP Couple / The Sensitive Couple / Cho-kam-gak Keo-peul (Ким Хён Чжу / Kim Hyeong Joo) [2008, Южная Корея, комедия, мистика, детектив, DVDRip] VO (DeMon) + Sub Rus, Eng + Original Kor

Ответить на тему
 
Автор Сообщение

user ®

Стаж: 13 лет

Сообщений: 15071

Пост Пост: #1 от 26-Июл-2014 21:10

[Цитировать]

Странная парочка / Chogam Kakkeopeul / The ESP Couple / The Sensitive Couple / Cho-kam-gak Keo-peul
Страна: Южная Корея
Жанр: комедия, мистика, детектив
Год выпуска: 2008
Продолжительность: 01:22:43
Перевод: Одноголосый закадровый DeMon
Cубтитры: русские (terra), английские
Оригинальная аудиодорожка: Корейский
Режиссер: Ким Хён Чжу / Kim Hyeong Joo
В ролях: Чжин Гу, Пак Бо Ён
Описание: Замкнутый студент Ким Су Мин еще в детстве понял, что надо скрывать свой особый дар — читать чужие мысли. Сложно найти друзей, когда знаешь все их грязные мыслишки наперед. Именно поэтому он держится ото всех подальше. Однако после странного знакомства с не менее странной, но очень симпатичной старшеклассницей Ли Хён Чжин (IQ которой зашкаливает, а мысли таинственным образом не поддаются чтению) и случайного вмешательства в дело о похищении, ему вряд ли удастся побыть одному. Хён Чжин начинает преследовать Су Мина по пятам, требуя, чтобы он направил свои способности на благое дело и помог полиции.
Большое Спасибо terra и DeMon.
Сэмпл: http://multi-up.com/988734
Качество видео: DVDRip
Формат видео: AVI
Видео: XviD, 720х400, 16:9, 23.976 fps, 1 618 Kbps
Аудио: AC-3, 48.0 KHz, 448 Kbps, 6 channels, русский (DeMon)
Аудио 2: AC-3, 48.0 KHz, 448 Kbps, 6 channels, корейский
Формат субтитров: softsub (SRT)
Доп. информация о субтитрах: terra
MediaInfo
Format : AVI
Format/Info : Audio Video Interleave
File size : 1.46 GiB
Duration : 1h 22mn
Overall bit rate : 2 528 Kbps
Writing application : VirtualDubMod 1.5.10.2 (build 2540/release)
Writing library : VirtualDubMod build 2540/release
Video
ID : 0
Format : MPEG-4 Visual
Format profile : Advanced Simple@L5
Format settings, BVOP : 1
Format settings, QPel : No
Format settings, GMC : No warppoints
Format settings, Matrix : Custom
Codec ID : XVID
Codec ID/Hint : XviD
Duration : 1h 22mn
Bit rate : 1 618 Kbps
Width : 720 pixels
Height : 400 pixels
Display aspect ratio : 16:9
Frame rate : 23.976 fps
Color space : YUV
Chroma subsampling : 4:2:0
Bit depth : 8 bits
Scan type : Progressive
Compression mode : Lossy
Bits/(Pixel*Frame) : 0.234
Stream size : 958 MiB (64%)
Writing library : XviD 64
Audio #1
ID : 1
Format : AC-3
Format/Info : Audio Coding 3
Mode extension : CM (complete main)
Format settings, Endianness : Big
Codec ID : 2000
Duration : 1h 22mn
Bit rate mode : Constant
Bit rate : 448 Kbps
Channel(s) : 6 channels
Channel positions : Front: L C R, Side: L R, LFE
Sampling rate : 48.0 KHz
Bit depth : 16 bits
Compression mode : Lossy
Stream size : 265 MiB (18%)
Alignment : Split accross interleaves
Interleave, duration : 42 ms (1.00 video frame)
Interleave, preload duration : 500 ms
Audio #2
ID : 2
Format : AC-3
Format/Info : Audio Coding 3
Mode extension : CM (complete main)
Format settings, Endianness : Big
Codec ID : 2000
Duration : 1h 22mn
Bit rate mode : Constant
Bit rate : 448 Kbps
Channel(s) : 6 channels
Channel positions : Front: L C R, Side: L R, LFE
Sampling rate : 48.0 KHz
Bit depth : 16 bits
Compression mode : Lossy
Stream size : 265 MiB (18%)
Alignment : Split accross interleaves
Interleave, duration : 42 ms (1.00 video frame)
Interleave, preload duration : 500 ms
Скриншот c названием фильма Скриншоты
Скачать

Скачать торрент! Странная парочка / Chogam Kakkeopeul / The ESP Couple / The Sensitive Couple / Cho-kam-gak Keo-peul (Ким Хён Чжу / Kim Hyeong Joo) [2008, Южная Корея, комедия, мистика, детектив, DVDRip] VO (DeMon) + Sub Rus, Eng + Original Kor

Как скачивать? · Что такое торрент? · Рейтинг и ограничения

Сайт не распространяет и не хранит электронные версии произведений, а лишь предоставляет доступ к создаваемому пользователями каталогу ссылок на торрент-файлы, которые содержат только списки хеш-сумм

[Профиль] [ЛС]
Показать сообщения:    
Ответить на тему

Текущее время: Сегодня 10:41

Часовой пояс: GMT + 4



Вы не можете начинать темы
Вы не можете отвечать на сообщения
Вы не можете редактировать свои сообщения
Вы не можете удалять свои сообщения
Вы не можете голосовать в опросах
Вы не можете прикреплять файлы к сообщениям
Вы не можете скачивать файлы