Французский шпион (Алексей Феоктистов) [2014, Детектив, боевик, WEB-DLRip]

Ответить на тему
 
Автор Сообщение

user ®

Стаж: 7 лет 7 месяцев

Сообщений: 20008

Пост Пост: #1 от 26-Июл-2014 21:10

[Цитировать]

Французский шпион- Страна: Россия
Жанр: детектив, боевик
Год выпуска: 2014
Продолжительность: 01:34:22-Перевод: Не требуется
Субтитры: нет
Режиссер: Алексей Феоктистов
В ролях: Оскар Кучера, Евгений Редько, Анна Чурина, Дмитрий Супонин, Охунджон Комилов, Сергей Батрак-Описание: Лейтенант Андрей Канаев служит в социалистической Чехословакии. Советские войска выводятся обратно в СССР. Часть, в которой служил Канаев, расформировывается. Андрей расстроен сокращением и делится своими переживаниями с приятелем - чехом Мареком.
Марек организовывает подставу, из-за которой Канаев оказывается вне закона. Через своего агента-вербовщика Софи он переправляет Андрея во Францию, где тот от безысходности поступает в «Иностранный Легион». В иностранном легионе Андрея вербует глава внешней разведки мсье Даниэль. Вскоре Андрей, уже в новом статусе и с новыми документами, возвращается в постперестроечную Россию и начинает строить новую жизнь, не забывая при этом выполнять поручения своих новых хозяев...- -Качество: WEB-DLRip | WEB-DL 720p | sample
Контейнер: AVI
Видео: XviD, 688x384 (16:9), 966 kbps, 23,976 fps, 0,153 bpp
Аудио: MP3 / 2.0 / 48 kHz / 128 kbps-Скриншоты Media Info
General
Complete name : E:\my_rip\Fransuzskiy.shpion.2014.WEBDLRip745.by.Дядя_Лёша.avi
Format : AVI
Format/Info : Audio Video Interleave
File size : 745 MiB
Duration : 1h 34mn
Overall bit rate : 1 104 Kbps
Writing application : VirtualDubMod 1.5.10.3 | www.virtualdub-fr.org || (build 2550/release)
Writing library : VirtualDubMod build 2550/release
Video
ID : 0
Format : MPEG-4 Visual
Format profile : Advanced Simple@L5
Format settings, BVOP : 1
Format settings, QPel : No
Format settings, GMC : No warppoints
Format settings, Matrix : Custom
Codec ID : XVID
Codec ID/Hint : XviD
Duration : 1h 34mn
Bit rate : 967 Kbps
Width : 688 pixels
Height : 384 pixels
Display aspect ratio : 16:9
Frame rate : 23.976 fps
Color space : YUV
Chroma subsampling : 4:2:0
Bit depth : 8 bits
Scan type : Progressive
Compression mode : Lossy
Bits/(Pixel*Frame) : 0.153
Stream size : 653 MiB (88%)
Writing library : XviD 73
Audio
ID : 1
Format : MPEG Audio
Format version : Version 1
Format profile : Layer 3
Mode : Joint stereo
Mode extension : MS Stereo
Codec ID : 55
Codec ID/Hint : MP3
Duration : 1h 34mn
Bit rate mode : Constant
Bit rate : 128 Kbps
Channel(s) : 2 channels
Sampling rate : 48.0 KHz
Compression mode : Lossy
Stream size : 86.4 MiB (12%)
Alignment : Aligned on interleaves
Interleave, duration : 42 ms (1.00 video frame)
Interleave, preload duration : 504 ms
Writing library : LAME3.99r
Encoding settings : -m j -V 4 -q 2 -lowpass 17 -b 128
Скачать

Скачать торрент!

Как скачивать? · Что такое торрент? · Рейтинг и ограничения

Сайт не распространяет и не хранит электронные версии произведений, а лишь предоставляет доступ к создаваемому пользователями каталогу ссылок на торрент-файлы, которые содержат только списки хеш-сумм

[Профиль] [ЛС]
Показать сообщения:    
Ответить на тему

Текущее время: Сегодня 18:39

Часовой пояс: GMT + 4



Вы не можете начинать темы
Вы не можете отвечать на сообщения
Вы не можете редактировать свои сообщения
Вы не можете удалять свои сообщения
Вы не можете голосовать в опросах
Вы не можете прикреплять файлы к сообщениям
Вы не можете скачивать файлы