Мисс Бабуля / Miss Granny (Дон Хёк Хван / Dong-hyuk Hwang) [2014, Южная Корея, Комедия, BDRip-AVC] DVO (GREEN TEA) + Sub Rus

Ответить на тему
 
Автор Сообщение

user ®

Стаж: 13 лет

Сообщений: 15071

Пост Пост: #1 от 26-Июл-2014 09:05

[Цитировать]

Мисс Бабуля / Miss Granny
Страна: Южная Корея
Жанр: Комедия
Год выпуска: 2014
Продолжительность: 02:04:54
Перевод: Любительский (двухголосый закадровый) GREEN TEA
Cубтитры: русские
Оригинальная аудиодорожка: нет
Режиссер: Дон Хёк Хван/Dong-hyuk Hwang
В ролях: Ын Кён Шим, Мун Хи На, Чжин Ён Чон, Ин Хван Пак, Дон Иль Сон, Чжин Ук Ли, Ин Ги Чон, Сыль Ги Ким, Су Хён Ким, Ён Чжу Ха, Хэ Джин Пак
Описание: О Мал Сун — 74-летняя вдова, начинает понимать, что становится обузой для своей семьи. Бродя по улицам, она попадает в таинственную фотостудию, владелец которой утверждает, что ему подвластно запечатлеть момент расцвета молодости. Когда Малсун выходит из фотостудии, она загадочным образом возвращается в свой 20-летний возраст. Воспользовавшись возможностью, выпадающей раз в жизни, она меняет своё имя на О Ду-ри (в честь любимой актрисы Одри Хепберн) и решает использовать все преимущества молодости.


Сэмпл: http://multi-up.com/988748
Качество видео: BDRip-AVC
Исходник:Miss Granny 2014 1080p Blu-ray Remux AVC DTS-HD MA 5.1 - KRaLiMaRKo/BLU-TORRENTS/subzero
Формат видео: MKV
Видео: h264;912x492;Aspect Ratio: 37:20(1.85:1);1483kbps;23.976fps
Аудио: AC3;Sample Rate:48000Hz;Channel:2(stereo);192kbps
Формат субтитров: softsub (SRT)
MediaInfo
Video
ID : 1
Format : AVC
Format/Info : Advanced Video Codec
Format profile : High@L4.1
Format settings, CABAC : Yes
Format settings, ReFrames : 7 frames
Codec ID : V_MPEG4/ISO/AVC
Duration : 2h 4mn
Bit rate : 1 483 Kbps
Width : 912 pixels
Height : 492 pixels
Display aspect ratio : 1.85:1
Frame rate mode : Constant
Frame rate : 23.976 fps
Color space : YUV
Chroma subsampling : 4:2:0
Bit depth : 8 bits
Scan type : Progressive
Bits/(Pixel*Frame) : 0.138
Stream size : 1.27 GiB (87%)
Writing library : x264 core 142 Рип от KinoCollection
Encoding settings : cabac=1 / ref=7 / deblock=1:-3:-3 / analyse=0x3:0x113 / me=umh / subme=11 / psy=1 / fade_compensate=0.00 / psy_rd=1.00:0.10 / mixed_ref=1 / me_range=32 / chroma_me=1 / trellis=2 / 8x8dct=1 / cqm=0 / deadzone=21,11 / fast_pskip=0 / chroma_qp_offset=-3 / threads=6 / lookahead_threads=1 / sliced_threads=0 / nr=0 / decimate=1 / interlaced=0 / bluray_compat=0 / constrained_intra=0 / fgo=0 / bframes=16 / b_pyramid=2 / b_adapt=2 / b_bias=0 / direct=3 / weightb=1 / open_gop=1 / weightp=2 / keyint=240 / keyint_min=23 / scenecut=40 / intra_refresh=0 / rc_lookahead=60 / rc=2pass / mbtree=1 / bitrate=1483 / ratetol=1.0 / qcomp=0.60 / qpmin=0 / qpmax=69 / qpstep=4 / cplxblur=20.0 / qblur=0.5 / ip_ratio=1.40 / aq=1:1.00
Language : English
Default : Yes
Forced : No
Audio
ID : 2
Format : AC-3
Format/Info : Audio Coding 3
Mode extension : CM (complete main)
Format settings, Endianness : Big
Codec ID : A_AC3
Duration : 2h 4mn
Bit rate mode : Constant
Bit rate : 192 Kbps
Channel(s) : 2 channels
Channel positions : Front: L R
Sampling rate : 48.0 KHz
Bit depth : 16 bits
Compression mode : Lossy
Stream size : 172 MiB (11%)
Language : Russian
Default : Yes
Forced : No
Text
ID : 3
Format : UTF-8
Codec ID : S_TEXT/UTF8
Codec ID/Info : UTF-8 Plain Text
Language : Russian
Default : No
Forced : No
Menu
00:00:00.000 : 00:00:00.000
00:07:49.344 : 00:07:49.344
00:15:53.661 : 00:15:53.661
00:23:28.741 : 00:23:28.741
00:31:50.158 : 00:31:50.158
00:42:21.831 : 00:42:21.831
00:46:42.717 : 00:46:42.717
00:56:31.430 : 00:56:31.430
01:04:44.589 : 01:04:44.589
01:11:22.695 : 01:11:22.695
01:17:18.884 : 01:17:18.884
01:25:45.349 : 01:25:45.349
01:32:05.019 : 01:32:05.019
01:37:27.508 : 01:37:27.508
01:43:21.112 : 01:43:21.112
01:51:22.801 : 01:51:22.801
01:58:01.324 : 01:58:01.324
02:02:10.490 : 02:02:10.490
Скриншот c названием фильма Скриншоты
Скачать

Скачать торрент! Мисс Бабуля / Miss Granny (Дон Хёк Хван / Dong-hyuk Hwang) [2014, Южная Корея, Комедия, BDRip-AVC] DVO (GREEN TEA) + Sub Rus

Как скачивать? · Что такое торрент? · Рейтинг и ограничения

Сайт не распространяет и не хранит электронные версии произведений, а лишь предоставляет доступ к создаваемому пользователями каталогу ссылок на торрент-файлы, которые содержат только списки хеш-сумм

[Профиль] [ЛС]
Показать сообщения:    
Ответить на тему

Текущее время: Сегодня 15:42

Часовой пояс: GMT + 4



Вы не можете начинать темы
Вы не можете отвечать на сообщения
Вы не можете редактировать свои сообщения
Вы не можете удалять свои сообщения
Вы не можете голосовать в опросах
Вы не можете прикреплять файлы к сообщениям
Вы не можете скачивать файлы