Поворот (Вадим Абдрашитов) [1978, Драма, экранизация, SATRip]

Ответить на тему
 
Автор Сообщение

user ®

Стаж: 7 лет 7 месяцев

Сообщений: 20008

Пост Пост: #1 от 26-Июл-2014 02:45

[Цитировать]

Поворот- Жанр: Драма, экранизация
Год выпуска: 1978
Продолжительность: 01:33:40-Режиссер: Вадим Абдрашитов-В ролях: Олег Янковский, Ирина Купченко, Олег Анофриев, Наталья Величко, Александр Кайдановский, Юрий Назаров, Виктор Проскурин, Анатолий Солоницын, Михаил Дадыко, Олимпиада Калмыкова, Наталья Малявина, Любовь Стриженова, Сергей Полежаев, Алексей Преснецов, Николай Смирнов-Описание: По мотивам одноимённого романа Вениамина Каверина. Счастливо завершается круиз молодожёнов по Чёрному морю. Впереди - Москва, интересная научная работа, защита диссертации и уют неизвестной пока семейной жизни. Но трагическая случайность рушит надежды Веденеевых. Виктор обвиняется в преступлении: он сбивает на своих "Жигулях" насмерть старушку. Начинается следствие...-Sample | КиноПоиск-Тип релиза: SATRip [исх. [url=http://***/forum/viewtopic.php?t=4774223]DVB[/url] спасибо [url=http://***/forum/profile.php?mode=viewprofile&u=13959500]a&s[/url]]
Формат видео: AVI-Видео: 688x528 (1.30:1), 25 fps, XviD build 50, 2034 kbps avg, 0.22 bit/pixel
Аудио: 48 kHz, AC3 Dolby Digital, 2/0 (L,R) ch, 192.00 kbps avg-Релиз группы:[url=http://***/forum/viewtopic.php?t=1677970] [/url]-Сравнение скриншотов
[url=http://***/forum/viewtopic.php?t=2428401]http://***/forum/viewtopic.php?t=2428401[/url]
http://screenshotcomparison.com/comparison/85107/picture:0
MediaInfo
General
Complete name : D:\Мои релизы\Поворот_SATRip_RG_All_Films.avi
Format : AVI
Format/Info : Audio Video Interleave
File size : 1.46 GiB
Duration : 1h 33mn
Overall bit rate : 2 236 Kbps
Writing application : VirtualDubMod 1.6.0.0 SURROUND (build 2560/release)
Writing library : VirtualDubMod build 2560/release
Video
ID : 0
Format : MPEG-4 Visual
Format profile : Advanced Simple@L5
Format settings, BVOP : Yes
Format settings, QPel : No
Format settings, GMC : No warppoints
Format settings, Matrix : Custom
Codec ID : XVID
Codec ID/Hint : XviD
Duration : 1h 33mn
Bit rate : 2 035 Kbps
Width : 688 pixels
Height : 528 pixels
Display aspect ratio : 4:3
Frame rate : 25.000 fps
Color space : YUV
Chroma subsampling : 4:2:0
Bit depth : 8 bits
Scan type : Progressive
Compression mode : Lossy
Bits/(Pixel*Frame) : 0.224
Stream size : 1.33 GiB (91%)
Writing library : XviD 1.2.1 (UTC 2008-12-04)
Audio
ID : 1
Format : AC-3
Format/Info : Audio Coding 3
Mode extension : CM (complete main)
Codec ID : 2000
Duration : 1h 33mn
Bit rate mode : Constant
Bit rate : 192 Kbps
Channel(s) : 2 channels
Channel positions : Front: L R
Sampling rate : 48.0 KHz
Bit depth : 16 bits
Compression mode : Lossy
Stream size : 129 MiB (9%)
Alignment : Split accross interleaves
Interleave, duration : 40 ms (1.00 video frame)
Interleave, preload duration : 500 ms
Скриншоты
Скачать

Скачать торрент!

Как скачивать? · Что такое торрент? · Рейтинг и ограничения

Сайт не распространяет и не хранит электронные версии произведений, а лишь предоставляет доступ к создаваемому пользователями каталогу ссылок на торрент-файлы, которые содержат только списки хеш-сумм

[Профиль] [ЛС]
Показать сообщения:    
Ответить на тему

Текущее время: Сегодня 22:42

Часовой пояс: GMT + 4



Вы не можете начинать темы
Вы не можете отвечать на сообщения
Вы не можете редактировать свои сообщения
Вы не можете удалять свои сообщения
Вы не можете голосовать в опросах
Вы не можете прикреплять файлы к сообщениям
Вы не можете скачивать файлы