Счастливого Рождества / Happy Christmas (Джо Сванберг / Joe Swanberg) [2014, США, драма, комедия, WEB-DLRip] Dub [Line]

Ответить на тему
 
Автор Сообщение

user ®

Стаж: 7 лет 7 месяцев

Сообщений: 20008

Пост Пост: #1 от 26-Июл-2014 02:45

[Цитировать]

Счастливого РождестваHappy Christmas«Family is the gift that keeps on taking»- Страна: США
Жанр: драма, комедия
Год выпуска: 2014
Продолжительность: 01:22:19-Перевод: Профессиональный (полное дублирование) (чистый звук)
Субтитры: нет
Режиссер: Джо Сванберг / Joe Swanberg
В ролях: Анна Кендрик, Лина Данэм, Джо Сванберг, Мелани Лински, Марк Веббер
Дублёры: Ирина Киреева (Jenny), Елена Шульман (Kelly), Сергей Смирнов (Jeff), Антон Савенков (Kevin)-Описание: Джефф и Келли счастливы вместе и воспитывают малыша. Он - режиссер, она - писательница. Казалось бы, этот яркий творческий союз предназначен для интересной насыщенной жизни, полной интересных встреч и путешествий. Но быт, хлопоты о ребенке и каждодневная рутина, кажется, потушили пожар, некогда пылавший между супругами. Все меняется, когда в доме появляется сестра Джеффа, двадцатилетняя Дженни, которая только что рассталась с парнем и готова к новым приключениям. Она ставит в доме все с ног на голову, приводя в недоумение Келли и одновременно напоминая жене своего брата о том, что жизнь - это не только стирка, уборка и готовка. Сумеют ли Келли и Дженни найти компромисс и как повлияют друг на друга.-
MPAA: R - Лицам до 17 лет обязательно присутствие взрослого-Качество: WEB-DLRip | WEB-DL 720p | sample
Контейнер: AVI
Видео: XviD, 688x384 (16:9), 1124 kbps, 23,976 fps, 0,178 bpp
Аудио: MP3 / 2.0 / 48 kHz / 128 kbps /-Скриншоты Media Info
General
Complete name : E:\my_rip\Schastlivogo.rojdestva.2014.WEBDLRip745.by.Дядя_Лёша.avi
Format : AVI
Format/Info : Audio Video Interleave
File size : 743 MiB
Duration : 1h 22mn
Overall bit rate : 1 262 Kbps
Writing application : VirtualDubMod 1.5.10.3 | www.virtualdub-fr.org || (build 2550/release)
Writing library : VirtualDubMod build 2550/release
Video
ID : 0
Format : MPEG-4 Visual
Format profile : Advanced Simple@L5
Format settings, BVOP : 1
Format settings, QPel : No
Format settings, GMC : No warppoints
Format settings, Matrix : Custom
Codec ID : XVID
Codec ID/Hint : XviD
Duration : 1h 22mn
Bit rate : 1 125 Kbps
Width : 688 pixels
Height : 384 pixels
Display aspect ratio : 16:9
Frame rate : 23.976 fps
Color space : YUV
Chroma subsampling : 4:2:0
Bit depth : 8 bits
Scan type : Progressive
Compression mode : Lossy
Bits/(Pixel*Frame) : 0.178
Stream size : 662 MiB (89%)
Writing library : XviD 73
Audio
ID : 1
Format : MPEG Audio
Format version : Version 1
Format profile : Layer 3
Mode : Joint stereo
Mode extension : MS Stereo
Codec ID : 55
Codec ID/Hint : MP3
Duration : 1h 22mn
Bit rate mode : Constant
Bit rate : 128 Kbps
Channel(s) : 2 channels
Sampling rate : 48.0 KHz
Compression mode : Lossy
Stream size : 75.4 MiB (10%)
Alignment : Aligned on interleaves
Interleave, duration : 42 ms (1.00 video frame)
Interleave, preload duration : 504 ms
Writing library : LAME3.99r
Encoding settings : -m j -V 4 -q 2 -lowpass 17 -b 128
Скачать

Скачать торрент!

Как скачивать? · Что такое торрент? · Рейтинг и ограничения

Сайт не распространяет и не хранит электронные версии произведений, а лишь предоставляет доступ к создаваемому пользователями каталогу ссылок на торрент-файлы, которые содержат только списки хеш-сумм

[Профиль] [ЛС]
Показать сообщения:    
Ответить на тему

Текущее время: Сегодня 09:46

Часовой пояс: GMT + 4



Вы не можете начинать темы
Вы не можете отвечать на сообщения
Вы не можете редактировать свои сообщения
Вы не можете удалять свои сообщения
Вы не можете голосовать в опросах
Вы не можете прикреплять файлы к сообщениям
Вы не можете скачивать файлы