Французский шпион (Алексей Феоктистов) [2014, Детектив, боевик, SATRip]

Ответить на тему
 
Автор Сообщение

user ®

Стаж: 7 лет 7 месяцев

Сообщений: 20008

Пост Пост: #1 от 25-Июл-2014 21:00

[Цитировать]

Французский шпион
Жанр: Детектив, боевик
Год выпуска: 2014
Продолжительность: 01:32:20
Выпущено: Россия
Субтитры: нет
Режиссёр: Алексей Феоктистов
В ролях: Оскар Кучера, Евгений Редько, Анна Чурина, Дмитрий Супонин, Охунджон Комилов, Сергей Батрак
Описание: Лейтенант Андрей Канаев служит в социалистической Чехословакии. Советские войска выводятся обратно в СССР. Часть, в которой служил Канаев, расформировывается. Андрей расстроен сокращением и делится своими переживаниями с приятелем — чехом Мареком. Марек организовывает подставу, из-за которой Канаев оказывается вне закона. Через своего агента-вербовщика Софи он переправляет Андрея во Францию, где тот от безысходности поступает в «Иностранный Легион». В иностранном легионе Андрея вербует глава внешней разведки мсье Даниэль. Вскоре Андрей, уже в новом статусе и с новыми документами, возвращается в постперестроечную Россию и начинает строить новую жизнь, не забывая при этом выполнять поручения своих новых хозяев…
Сэмпл: http://multi-up.com/988663
Качество видео: SATRip
Формат видео: AVI
Видео: MPEG4, DivX 5, 720x400 (16:9), 25.000 fps, 1 997 Kbps (0.277 bit/pixel)
Аудио: MP3, 48.0 KHz, 2 ch, 128 Kbps, CBR
MediaInfo
Общее
Полное имя : K:\Francuzskij.shpion.2014.SATRip.1400Mb.avi
Формат : AVI
Формат/Информация : Audio Video Interleave
Размер файла : 1,38 Гбайт
Продолжительность : 1 ч. 32 м.
Общий поток : 2135 Кбит/сек
Библиотека кодирования : VirtualDub build 35491/release
Видео
Идентификатор : 0
Формат : MPEG-4 Visual
Параметр BVOP формата : 1
Параметр QPel формата : Нет
Параметр GMC формата : Без точки перехода
Параметр матрицы формата : Default (H.263)
Режим смешивания : Сжатый битовый поток
Идентификатор кодека : DX50
Идентификатор кодека/Подсказка : DivX 5
Продолжительность : 1 ч. 32 м.
Битрейт : 1997 Кбит/сек
Ширина : 720 пикселей
Высота : 400 пикселей
Соотношение сторон : 16:9
Частота кадров : 25,000 кадров/сек
Цветовое пространство : YUV
Субдискретизация насыщенности : 4:2:0
Битовая глубина : 8 бит
Тип развёртки : Прогрессивная
Метод сжатия : С потерями
Бит/(Пиксели*Кадры) : 0.277
Размер потока : 1,29 Гбайт (94%)
Библиотека кодирования : DivX 6.8.5 (UTC 2009-08-20)
Аудио
Идентификатор : 1
Формат : MPEG Audio
Версия формата : Version 1
Профиль формата : Layer 3
Режим : Joint stereo
Расширение режима : MS Stereo
Идентификатор кодека : 55
Идентификатор кодека/Подсказка : MP3
Продолжительность : 1 ч. 32 м.
Вид битрейта : Постоянный
Битрейт : 128 Кбит/сек
Каналы : 2 канала
Частота : 48,0 КГц
Метод сжатия : С потерями
Размер потока : 84,5 Мбайт (6%)
Выравнивание : Разделение по промежуткам
Продолжительность промежутка : 40 мс. (1,00 видеокадр)
Время предзагрузки промежутка : 500 мс.
Скриншоты
Скачать

Скачать торрент!

Как скачивать? · Что такое торрент? · Рейтинг и ограничения

Сайт не распространяет и не хранит электронные версии произведений, а лишь предоставляет доступ к создаваемому пользователями каталогу ссылок на торрент-файлы, которые содержат только списки хеш-сумм

[Профиль] [ЛС]
Показать сообщения:    
Ответить на тему

Текущее время: Сегодня 15:37

Часовой пояс: GMT + 4



Вы не можете начинать темы
Вы не можете отвечать на сообщения
Вы не можете редактировать свои сообщения
Вы не можете удалять свои сообщения
Вы не можете голосовать в опросах
Вы не можете прикреплять файлы к сообщениям
Вы не можете скачивать файлы