Монтевидео, увидимся! / Montevideo, vidimo se! (Драган Бьелогрлич / Dragan Bjelogrlic) [2014, Сербия, комедия, приключения, спорт, DVDRip] + Sub Rus

Ответить на тему
 
Автор Сообщение

user ®

Стаж: 7 лет 7 месяцев

Сообщений: 20008

Пост Пост: #1 от 25-Июл-2014 14:40

[Цитировать]

Монтевидео, увидимся! / Montevideo, vidimo se!
Страна: Сербия / Intermedia Network
Жанр: комедия, приключения, спорт
Год выпуска: 2014
Продолжительность: 02:26:55
Перевод: Субтитры
Cубтитры: русские
Оригинальная аудиодорожка: Сербский
Режиссер: Драган Бьелогрлич / Dragan Bjelogrlic
В ролях: Милош Бикович, Петар Стругар, Виктор Савич, Armand Assante, Ivan Zekic, Небойша Илич, Войин Четкович, Никола Джурицко, Srdjan Timarov, Срджан Тодорович, Драган Николич ...
Описание: Футбольная сага 1930 года. Была продолжена в столице Уругвая, где после тяжелого путешествия через Атлантику, первая сформированная команда, Королевства Югославии была в числе участвующих в первом чемпионате мира по футболу. Команда из небольшой балканской страны, которой обеспечивают минимальные шансы на успех, жребий попадает на главного противника чемпионата, сборной Бразилии!
1 фильм: Монтевидео - божественное видение / Монтевидео, вкус мечты / Montevideo, bog te video (2010)
[url=http://***/forum/viewtopic.php?t=4763255]http://***/forum/viewtopic.php?t=4763255[/url]
Доп. информация: http://www.kinopoisk.ru/film/577890/ http://www.imdb.com/title/tt1801071/
В фильме присутствует ненормативная лексика!
За DVD9 спасибо - edus67
Русские субтитры вытащил из DVD
Сэмпл: http://multi-up.com/988595
Качество видео: DVDRip
Формат видео: AVI
Видео: XviD, 640x368, 25.000 fps, 1421 Kbps
Аудио: 48.0 KHz, AC3, 2/0 ch, 192Kbps, Serbian
Формат субтитров: softsub (SRT)
Пример субтитров
1198
02:07:39,360 --> 02:07:42,432
Свари его в томатном соусе...
И добавьте лучка!
1199
02:07:42,640 --> 02:07:46,076
Браво! Сейчас я им забью!
Вот, смотрите, сейчас я им
1200
02:07:46,280 --> 02:07:50,114
забью! Унесите меня
отсюда на х....й подальше!
1201
02:07:50,320 --> 02:07:53,232
Чтобы глаза мои этого не видели!
Уругвай! Уругвай!
1202
02:07:53,440 --> 02:07:56,398
История вас рассудит!
Сейчас можно и по-сербски, Бора,
1203
02:07:56,600 --> 02:08:00,070
свинство.
Еб... вашу мать.
1204
02:08:10,000 --> 02:08:12,434
Чтоб они.... еб их....!
1205
02:08:16,520 --> 02:08:19,910
На поле, ребята. Прошу вас!
До перерыва.
1206
02:08:22,160 --> 02:08:24,754
Я посмотрю, что можно сделать.
1207
02:08:24,960 --> 02:08:28,953
Умоляю! Пошли!
Югославия! Пошли играть!
1208
02:08:29,200 --> 02:08:31,509
Пошли! Давайте, ребята!
1209
02:08:31,720 --> 02:08:34,951
Милутинец! Милутинец!
1210
02:08:40,120 --> 02:08:43,078
Возьми повязку, Милутинец!
1211
02:08:54,400 --> 02:08:58,029
Пошли, осел! На х..й все это.
Пошли!
1212
02:09:12,960 --> 02:09:16,032
Мистер, сюда нельзя.
- Убирайся!
1213
02:09:31,760 --> 02:09:34,957
Месье Риме! Месье Риме!
- Да!
1214
02:09:38,120 --> 02:09:41,954
Что происходит, месье Риме?
Успех. Ваш, мой, общий!
1215
02:09:42,200 --> 02:09:46,716
У футбола мировое будущее.
Это для вас будущее?
1216
02:09:48,960 --> 02:09:50,552
Послушайте!
MediaInfo
F:\Montevideo vidimo se DVD (2014)\Montevideo.vidimo.se.2014.XviD.DVDRip.avi
General
Complete name : F:\Montevideo vidimo se DVD (2014)\Montevideo.vidimo.se.2014.XviD.DVDRip.avi
Format : AVI
Format/Info : Audio Video Interleave
File size : 1.46 GiB
Duration : 2h 26mn
Overall bit rate : 1 421 Kbps
Writing application : VirtualDubMod 1.5.4.1 (build 2178/release)
Writing library : VirtualDubMod build 2178/release
Video #0
ID : 0
Format : MPEG-4 Visual
Format profile : Advanced Simple@L5
Format settings, BVOP : 1
Format settings, QPel : No
Format settings, GMC : No warppoints
Format settings, Matrix : Custom
Codec ID : XVID
Codec ID/Hint : XviD
Duration : 2h 26mn
Bit rate : 1 223 Kbps
Width : 640 pixels
Height : 368 pixels
Display aspect ratio : 1.739
Frame rate : 25.000 fps
Color space : YUV
Chroma subsampling : 4:2:0
Bit depth : 8 bits
Scan type : Progressive
Compression mode : Lossy
Bits/(Pixel*Frame) : 0.208
Stream size : 1.25 GiB (86%)
Writing library : XviD 64
Audio #1
ID : 1
Format : AC-3
Format/Info : Audio Coding 3
Mode extension : CM (complete main)
Format settings, Endianness : Big
Codec ID : 2000
Duration : 2h 26mn
Bit rate mode : Constant
Bit rate : 192 Kbps
Channel count : 2 channels
Channel positions : Front: L R
Sampling rate : 48.0 KHz
Bit depth : 16 bits
Compression mode : Lossy
Stream size : 202 MiB (14%)
Alignment : Split accross interleaves
Interleave, duration : 96 ms (2.40 video frames)
Interleave, preload duration : 96 ms
Language : Serbian
Скриншот c названием фильма Скриншоты
Скачать

Скачать торрент!

Как скачивать? · Что такое торрент? · Рейтинг и ограничения

Сайт не распространяет и не хранит электронные версии произведений, а лишь предоставляет доступ к создаваемому пользователями каталогу ссылок на торрент-файлы, которые содержат только списки хеш-сумм

[Профиль] [ЛС]
Показать сообщения:    
Ответить на тему

Текущее время: Сегодня 05:52

Часовой пояс: GMT + 4



Вы не можете начинать темы
Вы не можете отвечать на сообщения
Вы не можете редактировать свои сообщения
Вы не можете удалять свои сообщения
Вы не можете голосовать в опросах
Вы не можете прикреплять файлы к сообщениям
Вы не можете скачивать файлы