Зося (Михаил Богин) [1967, Мелодрама, военный, SATRip]

Ответить на тему
 
Автор Сообщение

user ®

Стаж: 7 лет 7 месяцев

Сообщений: 20008

Пост Пост: #1 от 25-Июл-2014 02:45

[Цитировать]

Зося- Жанр: Мелодрама, военный
Год выпуска: 1967
Продолжительность: 01:03:36-Режиссер: Михаил Богин-В ролях: Юрий Каморный, Пола Ракса, Николай Мерзликин, Зигмунт Зинтель, Барбара Баргеловская, Веслава Мазуркевич, Георгий Бурков, Александр Граве, Николай Хангажиев, Любовь Корнева-Описание: На войне слова любви тонут в грохоте орудий. Но самый кровавый бой рано или поздно заканчивается. Во время короткой передышки можно сменить автомат на томик Есенина и помечтать о прекрасной польской девушке из освобожденной деревни. Когда молчат пушки — говорят музы. История любви советского офицера и польской девушки в последние дни войны. Батальон, где служат Михаил и Виктор, располагается на отдых в польской деревне. Друзья знакомятся с дочерью квартирной хозяйки. Михаил с первого взгляда влюбляется в Зосю, однако ему кажется, что ей нравится Виктор. И только когда батальон покидает деревню, Михаил понимает, что девушка любит именно его.-Sample | КиноПоиск-Тип релиза: SATRip [исх. [url=http://***/forum/viewtopic.php?t=4784668]DVB[/url] спасибо [url=http://***/forum/profile.php?mode=viewprofile&u=22293895]Romanok8691[/url]]
Формат видео: AVI-Видео: 672x352 (1.91:1), 25 fps, XviD build 50, 2255 kbps avg, 0.38 bit/pixel
Аудио: 48 kHz, AC3 Dolby Digital, 2/0 (L,R) ch, 192.00 kbps avg-Релиз группы:[url=http://***/forum/viewtopic.php?t=1677970] [/url]-Сравнение скриншотов
[url=http://***/forum/viewtopic.php?t=2154012]http://***/forum/viewtopic.php?t=2154012[/url]
http://screenshotcomparison.com/comparison/84982/picture:2
MediaInfo
General
Complete name : D:\Мои релизы\Зося_SATRip_RG_All_Films.avi
Format : AVI
Format/Info : Audio Video Interleave
File size : 1.09 GiB
Duration : 1h 3mn
Overall bit rate : 2 458 Kbps
Writing application : VirtualDubMod 1.6.0.0 SURROUND (build 2560/release)
Writing library : VirtualDubMod build 2560/release
Video
ID : 0
Format : MPEG-4 Visual
Format profile : Advanced Simple@L5
Format settings, BVOP : Yes
Format settings, QPel : No
Format settings, GMC : No warppoints
Format settings, Matrix : Custom
Codec ID : XVID
Codec ID/Hint : XviD
Duration : 1h 3mn
Bit rate : 2 256 Kbps
Width : 672 pixels
Height : 352 pixels
Display aspect ratio : 1.909
Frame rate : 25.000 fps
Color space : YUV
Chroma subsampling : 4:2:0
Bit depth : 8 bits
Scan type : Progressive
Compression mode : Lossy
Bits/(Pixel*Frame) : 0.381
Stream size : 1.00 GiB (92%)
Writing library : XviD 1.2.1 (UTC 2008-12-04)
Audio
ID : 1
Format : AC-3
Format/Info : Audio Coding 3
Mode extension : CM (complete main)
Codec ID : 2000
Duration : 1h 3mn
Bit rate mode : Constant
Bit rate : 192 Kbps
Channel(s) : 2 channels
Channel positions : Front: L R
Sampling rate : 48.0 KHz
Bit depth : 16 bits
Compression mode : Lossy
Stream size : 87.3 MiB (8%)
Alignment : Split accross interleaves
Interleave, duration : 40 ms (1.00 video frame)
Interleave, preload duration : 500 ms
Скриншоты
Скачать

Скачать торрент!

Как скачивать? · Что такое торрент? · Рейтинг и ограничения

Сайт не распространяет и не хранит электронные версии произведений, а лишь предоставляет доступ к создаваемому пользователями каталогу ссылок на торрент-файлы, которые содержат только списки хеш-сумм

[Профиль] [ЛС]
Показать сообщения:    
Ответить на тему

Текущее время: Сегодня 16:27

Часовой пояс: GMT + 4



Вы не можете начинать темы
Вы не можете отвечать на сообщения
Вы не можете редактировать свои сообщения
Вы не можете удалять свои сообщения
Вы не можете голосовать в опросах
Вы не можете прикреплять файлы к сообщениям
Вы не можете скачивать файлы