Нечего терять / Nothing to Lose (Стив Одекерк / Steve Oedekerk) [1997, США, комедия, приключения, WEB-DL 1080p] Dub + MVO (СТС) + AVO (Живов) + Sub Rus, Eng + Original Eng

Ответить на тему
 
Автор Сообщение

user ®

Стаж: 7 лет 7 месяцев

Сообщений: 20008

Пост Пост: #1 от 24-Июл-2014 23:35

[Цитировать]

Нечего терять / Nothing to Lose
Страна: США
Жанр: комедия, приключения
Год выпуска: 1997
Продолжительность: 01:37:58
Перевод 1: Профессиональный (дублированный)
Перевод 2: Профессиональный (многоголосый закадровый) СТС
Перевод 3: Авторский (одноголосый закадровый) Юрий Живов
Cубтитры: русские, английские
Оригинальная аудиодорожка: английский
Режиссер: Стив Одекерк / Steve Oedekerk
В ролях: Мартин Лоуренс, Тим Роббинс, Джон К. МакГинли, Джанкарло Эспозито, Келли Престон, Майкл МакКин, Ребекка Гэйхарт, Сьюзэн Барнс, Ирма П. Холл, Самариа Грэхэм...
Описание: Рекламный агент Ник Бим, которому нечего терять… кроме своей обожаемой жены, застает ее в постели с собственным начальником. Доведенный до отчаяния, он садится в машину и уезжает куда глаза глядят.
Но неприятности для него только начинаются, ведь в этот момент другой неудачник выходит на большую дорогу в поисках жертвы. А на горизонте как раз показался автомобиль Ника…
Сэмпл: http://multi-up.com/988474
Тип релиза: WEB-DL 1080p
Контейнер: MKV
Видео: 1916x1076 (16:9), 23.976 fps, AVC, ~4862 Kbps, 0.098 bits/pixel
Аудио 1: Russian, 48.0 KHz, AC3, 2 ch, 192 Kbps - Dub
Аудио 2: Russian, 48.0 KHz, AC3, 2 ch, 128 Kbps - СТС
Аудио 3: Russian, 48.0 KHz, AC3, 5 ch, 384 Kbps - Юрий Живов
Аудио 4: English, 48.0 KHz, AC3, 6 ch, 384 Kbps

Сравнение с HDTV
HDTV 1080i

WEB-DL 1080p
MediaInfo
General
Unique ID : 255060648971947832692149150683147491028 (0xBFE2E4E6F2C493A49C69FEBE1C5356D4)
Complete name : D:\Nothing to Lose.mkv
Format : Matroska
Format version : Version 4 / Version 2
File size : 4.15 GiB
Duration : 1h 37mn
Overall bit rate : 6 071 Kbps
Encoded date : UTC 2014-07-24 13:21:04
Writing application : mkvmerge v7.0.0 ('Where We Going') 64bit built on Jun 9 2014 15:16:27
Writing library : libebml v1.3.0 + libmatroska v1.4.1
DURATION : 01:37:48.280000000
NUMBER_OF_FRAMES : 997
NUMBER_OF_BYTES : 56228
_STATISTICS_WRITING_APP : mkvmerge v7.0.0 ('Where We Going') 64bit built on Jun 9 2014 15:16:27
_STATISTICS_WRITING_DATE_UTC : 2014-07-24 13:21:04
_STATISTICS_TAGS : BPS DURATION NUMBER_OF_FRAMES NUMBER_OF_BYTES
Video
ID : 1
Format : AVC
Format/Info : Advanced Video Codec
Format profile : High@L4.0
Format settings, CABAC : Yes
Format settings, ReFrames : 4 frames
Codec ID : V_MPEG4/ISO/AVC
Duration : 1h 37mn
Bit rate : 4 862 Kbps
Width : 1 916 pixels
Height : 1 076 pixels
Display aspect ratio : 16:9
Frame rate mode : Constant
Frame rate : 23.976 fps
Color space : YUV
Chroma subsampling : 4:2:0
Bit depth : 8 bits
Scan type : Progressive
Bits/(Pixel*Frame) : 0.098
Stream size : 3.33 GiB (80%)
Language : English
Default : Yes
Forced : No
Color primaries : BT.709
Transfer characteristics : BT.709
Matrix coefficients : BT.709
Audio #1
ID : 2
Format : AC-3
Format/Info : Audio Coding 3
Mode extension : CM (complete main)
Format settings, Endianness : Big
Codec ID : A_AC3
Duration : 1h 37mn
Bit rate mode : Constant
Bit rate : 192 Kbps
Channel(s) : 2 channels
Channel positions : Front: L R
Sampling rate : 48.0 KHz
Bit depth : 16 bits
Compression mode : Lossy
Stream size : 135 MiB (3%)
Title : Dub
Language : Russian
Default : Yes
Forced : No
Audio #2
ID : 3
Format : AC-3
Format/Info : Audio Coding 3
Mode extension : CM (complete main)
Format settings, Endianness : Big
Codec ID : A_AC3
Duration : 1h 37mn
Bit rate mode : Constant
Bit rate : 128 Kbps
Channel(s) : 2 channels
Channel positions : Front: L R
Sampling rate : 48.0 KHz
Bit depth : 16 bits
Compression mode : Lossy
Stream size : 89.7 MiB (2%)
Title : СТС
Language : Russian
Default : No
Forced : No
Audio #3
ID : 4
Format : AC-3
Format/Info : Audio Coding 3
Mode extension : CM (complete main)
Format settings, Endianness : Big
Codec ID : A_AC3
Duration : 1h 37mn
Bit rate mode : Constant
Bit rate : 384 Kbps
Channel(s) : 5 channels
Channel positions : Front: L C R, Side: L R
Sampling rate : 48.0 KHz
Bit depth : 16 bits
Compression mode : Lossy
Stream size : 269 MiB (6%)
Title : Юрий Живов
Language : Russian
Default : No
Forced : No
Audio #4
ID : 5
Format : AC-3
Format/Info : Audio Coding 3
Mode extension : CM (complete main)
Format settings, Endianness : Big
Codec ID : A_AC3
Duration : 1h 37mn
Bit rate mode : Constant
Bit rate : 384 Kbps
Channel(s) : 6 channels
Channel positions : Front: L C R, Side: L R, LFE
Sampling rate : 48.0 KHz
Bit depth : 16 bits
Compression mode : Lossy
Stream size : 269 MiB (6%)
Language : English
Default : No
Forced : No
Text #1
ID : 6
Format : UTF-8
Codec ID : S_TEXT/UTF8
Codec ID/Info : UTF-8 Plain Text
Language : Russian
Default : No
Forced : No
Text #2
ID : 7
Format : UTF-8
Codec ID : S_TEXT/UTF8
Codec ID/Info : UTF-8 Plain Text
Language : English
Default : No
Forced : No
Menu
00:00:00.000 : en:Program Start
00:00:15.000 : en:Fantasies
00:02:12.000 : en:Opening Credits
00:08:37.000 : en:Home Early
00:11:09.000 : en:Wrong Guy, Wrong Day
00:15:53.000 : en:Last Stop Diner
00:23:10.000 : en:Chase Is On
00:36:08.000 : en:Not Another Heist
00:39:02.000 : en:Confrontations
00:55:44.000 : en:Scary Robbers
01:05:36.000 : en:Guard On Duty
01:10:51.000 : en:Darling Danielle
01:13:20.000 : en:Uninvited Hotel Guests
01:15:34.000 : en:Enlightening Phone Call
01:21:43.000 : en:Getting Control
01:33:33.000 : en:End Credits
Скриншоты
Скачать

Скачать торрент!

Как скачивать? · Что такое торрент? · Рейтинг и ограничения

Сайт не распространяет и не хранит электронные версии произведений, а лишь предоставляет доступ к создаваемому пользователями каталогу ссылок на торрент-файлы, которые содержат только списки хеш-сумм

[Профиль] [ЛС]
Показать сообщения:    
Ответить на тему

Текущее время: Сегодня 22:17

Часовой пояс: GMT + 4



Вы не можете начинать темы
Вы не можете отвечать на сообщения
Вы не можете редактировать свои сообщения
Вы не можете удалять свои сообщения
Вы не можете голосовать в опросах
Вы не можете прикреплять файлы к сообщениям
Вы не можете скачивать файлы