Костя / Kostya (Антон Дьяков) [2012, мультфильм, чёрный юмор, WEBRip-AVC]

Ответить на тему
 
Автор Сообщение

user ®

Стаж: 7 лет 7 месяцев

Сообщений: 20008

Пост Пост: #1 от 24-Июл-2014 20:25

[Цитировать]

Костя / Kostya
Страна: Россия
Жанр: мультфильм, чёрный юмор
Продолжительность: 00:05:45
Год выпуска: 2012
Перевод: Не требуется
Русские субтитры: нет
Режиссёр: Антон Дьяков
Описание: Эта история начинается на кладбище, где появляется на свет скелет Костя. Словно счастливый ребёнок, Костя шагает навстречу неизвестному и, конечно же, прекрасному будущему. Мы становимся свидетелями приключений Кости в современном мегаполисе.
Доп. информация: Приз за Лучший дебют на Фестивале студенческого и дебютного кино "Святая Анна"
Качество: WEBRip-AVC
Формат: MP4
Видео: 1170 kbps, 1280х720 (16:9), 25.000 fps, AVC (High@L3.1)
Аудио: 192 kbps, 44.1 kHz, 2 channels, AAC (LC)
Субтитры: отсутствуют
Подробные технические данные
GeneralComplete name : Костя (2012).mp4Format : MPEG-4Format profile : Base Media / Version 2Codec ID : mp42File size : 56.1 MiBDuration : 5mn 45sOverall bit rate mode : VariableOverall bit rate : 1 365 KbpsEncoded date : UTC 2014-02-24 05:43:26Tagged date : UTC 2014-02-24 05:43:26gsst : 0gstd : 345116gssd : B4A7DD801MH1404136808610054gshh : r1---sn-cg07luee.googlevideo.com
VideoID : 1Format : AVCFormat/Info : Advanced Video CodecFormat profile : High@L3.1Format settings, CABAC : YesFormat settings, ReFrames : 1 frameCodec ID : avc1Codec ID/Info : Advanced Video CodingDuration : 5mn 45sBit rate : 1 170 KbpsMaximum bit rate : 4 199 KbpsWidth : 1 280 pixelsHeight : 720 pixelsDisplay aspect ratio : 16:9Frame rate mode : ConstantFrame rate : 25.000 fpsColor space : YUVChroma subsampling : 4:2:0Bit depth : 8 bitsScan type : ProgressiveBits/(Pixel*Frame) : 0.051Stream size : 48.1 MiB (86%)Tagged date : UTC 2014-02-24 05:43:30
AudioID : 2Format : AACFormat/Info : Advanced Audio CodecFormat profile : LCCodec ID : 40Duration : 5mn 45sBit rate mode : VariableBit rate : 192 KbpsMaximum bit rate : 202 KbpsChannel(s) : 2 channelsChannel positions : Front: L RSampling rate : 44.1 KHzCompression mode : LossyStream size : 7.90 MiB (14%)Title : IsoMedia File Produced by Google, 5-11-2011Encoded date : UTC 2014-02-24 05:43:28Tagged date : UTC 2014-02-24 05:43:30
Скриншоты
Скачать

Скачать торрент!

Как скачивать? · Что такое торрент? · Рейтинг и ограничения

Сайт не распространяет и не хранит электронные версии произведений, а лишь предоставляет доступ к создаваемому пользователями каталогу ссылок на торрент-файлы, которые содержат только списки хеш-сумм

[Профиль] [ЛС]
Показать сообщения:    
Ответить на тему

Текущее время: Сегодня 02:28

Часовой пояс: GMT + 4



Вы не можете начинать темы
Вы не можете отвечать на сообщения
Вы не можете редактировать свои сообщения
Вы не можете удалять свои сообщения
Вы не можете голосовать в опросах
Вы не можете прикреплять файлы к сообщениям
Вы не можете скачивать файлы