Огненная буря / Firestorm / Fung bou (Алань Юйэнь / Alan Yuen) [2013 г., Гонконг, Китай, боевик, криминал, BDRip] DVO (GREEN TEA) + Original (Chi)

Ответить на тему
 
Автор Сообщение

user ®

Стаж: 13 лет

Сообщений: 15071

Пост Пост: #1 от 24-Июл-2014 14:35

[Цитировать]

--Огненная буря / Fung bou-- Страна: Гонконг, Китай
Жанр: боевик, криминал
Год выхода: 2013
Продолжительность: 01:49:14
Перевод: любительский (двухголосый, закадровый) (GREEN TEA) (Константин Романов, Ольга Гринтиева)
Субтитры: нет
Оригинальная аудиодорожка: китайская
Режиссер: Алань Юйэнь
В ролях: Яо Чэнь, Ка Танг Лам, Энди Лау, Ху Цзюнь, Рэй Луи, Син-Бан Лам, Винсент Сзе, Чи-инь Вонг, Майкл Вонг
О фильме: Бронированный инкассаторский автомобиль средь бела дня подвергается атаке со стороны банды преступников. Расследованием преступления занимается инспектор Луи Мин Чит, который руководит спецотрядом. Однако не так то просто схватить вооруженных до зубов головорезов, поэтому Луи решает пойти на сделку с Синг Понгом, обещая освободить его из тюрьмы, если он поможет схватить своих бывших подельников. Помимо этих событий к городу приближается шторм катастрофической силы.

Релиз от -
Автор: Gellard
Сэмпл: скачать
Качество: BDRip (источник: HDTracker / Blu-Ray Remux / 1080p)
Формат: AVI
Видео: 720x304 (2.37:1), 24 fps, XviD build 65 ~2083 kbps avg, 0.40 bit/pixel
Аудио #1: (DVO) 48 kHz, AC3 Dolby Digital, 3/2 (L,C,R,l,r) + LFE ch, 384.00 kbps avg
Аудио #2: (CHI) 48 kHz, AC3 Dolby Digital, 3/2 (L,C,R,l,r) + LFE ch, 384.00 kbps avg-
-
Скриншоты MediaInfo
General
Complete name                            : Ognennaya.burya.2013.DUAL.BDRip.XviD.AC3.-HQCLUB.avi
Format                                   : AVI
Format/Info                              : Audio Video Interleave
Format profile                           : OpenDML
File size                                : 2.18 GiB
Duration                                 : 1h 49mn
Overall bit rate                         : 2 858 Kbps
Movie name                               : Огненная буря / Firestorm / Fung bou (2013) BDRip
Director                                 : Gellard
Genre                                    : боевик, криминал
Writing application                      : VirtualDubMod 1.5.10.2 (build 2542/release)
Copyright                                : HQCLUB
Comment                                  : 22.07.2014
Video
ID                                       : 0
Format                                   : MPEG-4 Visual
Format profile                           : Advanced Simple@L5
Format settings, BVOP                    : 1
Format settings, QPel                    : No
Format settings, GMC                     : No warppoints
Format settings, Matrix                  : Custom
Codec ID                                 : XVID
Codec ID/Hint                            : XviD
Duration                                 : 1h 49mn
Bit rate                                 : 2 072 Kbps
Width                                    : 720 pixels
Height                                   : 304 pixels
Display aspect ratio                     : 2.35:1
Frame rate                               : 24.000 fps
Color space                              : YUV
Chroma subsampling                       : 4:2:0
Bit depth                                : 8 bits
Scan type                                : Progressive
Compression mode                         : Lossy
Bits/(Pixel*Frame)                       : 0.394
Stream size                              : 1.58 GiB (73%)
Writing library                          : XviD 65
Audio #1
ID                                       : 1
Format                                   : AC-3
Format/Info                              : Audio Coding 3
Mode extension                           : CM (complete main)
Format settings, Endianness              : Big
Codec ID                                 : 2000
Duration                                 : 1h 49mn
Bit rate mode                            : Constant
Bit rate                                 : 384 Kbps
Channel count                            : 6 channels
Channel positions                        : Front: L C R, Side: L R, LFE
Sampling rate                            : 48.0 KHz
Bit depth                                : 16 bits
Compression mode                         : Lossy
Stream size                              : 300 MiB (13%)
Alignment                                : Split accross interleaves
Interleave, duration                     : 42 ms (1.00 video frame)
Interleave, preload duration             : 500 ms
Audio #2
ID                                       : 2
Format                                   : AC-3
Format/Info                              : Audio Coding 3
Mode extension                           : CM (complete main)
Format settings, Endianness              : Big
Codec ID                                 : 2000
Duration                                 : 1h 49mn
Bit rate mode                            : Constant
Bit rate                                 : 384 Kbps
Channel count                            : 6 channels
Channel positions                        : Front: L C R, Side: L R, LFE
Sampling rate                            : 48.0 KHz
Bit depth                                : 16 bits
Compression mode                         : Lossy
Stream size                              : 300 MiB (13%)
Alignment                                : Split accross interleaves
Interleave, duration                     : 42 ms (1.00 video frame)
Interleave, preload duration             : 500 ms
Скачать

Скачать торрент! Огненная буря / Firestorm / Fung bou (Алань Юйэнь / Alan Yuen) [2013 г., Гонконг, Китай, боевик, криминал, BDRip] DVO (GREEN TEA) + Original (Chi)

Как скачивать? · Что такое торрент? · Рейтинг и ограничения

Сайт не распространяет и не хранит электронные версии произведений, а лишь предоставляет доступ к создаваемому пользователями каталогу ссылок на торрент-файлы, которые содержат только списки хеш-сумм

[Профиль] [ЛС]
Показать сообщения:    
Ответить на тему

Текущее время: Сегодня 15:05

Часовой пояс: GMT + 4



Вы не можете начинать темы
Вы не можете отвечать на сообщения
Вы не можете редактировать свои сообщения
Вы не можете удалять свои сообщения
Вы не можете голосовать в опросах
Вы не можете прикреплять файлы к сообщениям
Вы не можете скачивать файлы