Князь Токугава Иэясу / Lord Tokugawa Ieyasu (Ито Дайскэ / Daisuke Ito) [1965, Япония, Историческое кино, биография, дзидай-гэки, DVDRip] Sub Rus [Tora Asakura]

Ответить на тему
 
Автор Сообщение

user ®

Стаж: 13 лет

Сообщений: 15071

Пост Пост: #1 от 24-Июл-2014 11:25

[Цитировать]

Князь Токугава Иэясу / Lord Tokugawa Ieyasu / 徳川家康
Страна: Япония
Жанр: Историческое кино, биография, дзидай-гэки
Год выпуска: 1965
Продолжительность: 2:23
Перевод: Субтитры (перевод Tora Asakura)
Cубтитры: русские
Оригинальная аудиодорожка: Японская
За рип большое спасибо Kofk'e!
Режиссер: Ито Дайскэ / Daisuke Ito
В ролях: Кинноске Накамура, Кинья Китаодзи, Такахиро Тамура
IMDB
Описание: История Японии знала много великих людей - воинов, администраторов и политиков. Токугава Иэясу занимает в их ряду особое место. Судьба сдала ему не самые лучшие карты - владения его семьи (небольшое княжество Микава) были окружены могущественными соседями. Его отцу не хватило сил ни на то, чтобы удержать свою жену, которая была вынуждена развестись с ним и выйти замуж вторично, ни на то, чтобы уберечь маленького сына от участи заложника. Юный князь с детства был заложником то в руках клана Ода, то в руках могущественного дома Имагава. Однако многочисленные лишения не сломили ни самого князя, ни его вассалов, оставшихся в замке Окадзаки. Они лишь выковали и закалили его характер. Ход событий в его жизни был переломлен битвой при Окэхадзама, в которой другой титан того времени - князь Ода Нобунага - сумел одолеть армию, многократно превосходившую по численности его собственную. Фильм посвящён тому, какие трудности пришлось преодолеть ещё в детстве молодому Токугава Иэясу, прежде чем стать первым по могуществу властелином своей страны (Tora Asakura).
Релиз от -
Качество видео: DVDRip
Формат видео: AVI
Видео: 720x320 (2.25:1), 23,976 fps, DivX 5 ~1 328 kbps avg, 0.24 bit/pixel
Аудио: 48 kHz, MPEG Layer 3, 2 ch, ~128.00 kbps avg
Формат субтитров: softsub (SRT)
Семпл Образец субтитров
446
00:50:18,767 --> 00:50:20,367
Эй, Такэтиё.
447
00:50:20,368 --> 00:50:23,037
Младшему брату следует приветствовать
своего старшего брата.
448
00:50:23,038 --> 00:50:26,240
Я не буду вашим
младшим братом.
449
00:50:26,241 --> 00:50:29,410
- Почему же?
- Потому что вы лжец.
450
00:50:31,011 --> 00:50:32,079
Так вы говорите, что я солгал?
451
00:50:32,080 --> 00:50:34,849
- Солгали.
- Да, вы солгали.
452
00:50:35,750 --> 00:50:38,319
Когда вы встретились
нам в Киёсу, вы сказали
453
00:50:38,320 --> 00:50:41,255
что почувствовали сходство,
и будете братом его милости.
454
00:50:41,256 --> 00:50:44,959
Молодой господин ответил тогда,
что готов быть вашим братом.
455
00:50:44,960 --> 00:50:49,463
Вы сказали, что дадите ему коня
в знак свершения вашего договора.
456
00:50:51,766 --> 00:50:55,569
И вы солгали, потому что
коня я так и не получил.
457
00:50:56,671 --> 00:50:59,240
У меня есть конь,
ожидающий меня снаружи.
458
00:50:59,241 --> 00:51:02,576
Вам меня не провести.
Мне нужен настоящий конь.
459
00:51:03,745 --> 00:51:05,880
Хорошо, я подарю вам
настоящего коня.
460
00:51:05,881 --> 00:51:09,617
Но конь - это ведь не игрушка.
461
00:51:10,818 --> 00:51:13,854
Когда вы станете достаточно
взрослым, чтобы сесть на коня,
462
00:51:13,855 --> 00:51:17,057
я дам вам его, как и обещал.
463
00:51:17,926 --> 00:51:20,261
Лучшего коня в Японии.
464
00:51:26,735 --> 00:51:32,773
Вы делаете журавликов,
словно девчонка.
465
00:51:32,774 --> 00:51:34,408
Это странно.
466
00:51:34,409 --> 00:51:37,511
Это подношение богам.
467
00:51:37,512 --> 00:51:40,781
О чём вы хотите попросить
богов Святилища Ацута?
468
00:51:40,782 --> 00:51:44,585
Не этих богов. Это предназначено
богам Окадзаки.
469
00:51:48,156 --> 00:51:50,558
И о чём вы хотите молить их?
470
00:51:50,559 --> 00:51:53,527
Вы старше меня, но
не так уж умны.
471
00:51:53,528 --> 00:51:57,431
Я попрошу их о возвращении меня
в Окадзаки как можно быстрее.
MediaInfo
General
Complete name : C:\Users\Lenovo\Desktop\Князь Токугава Иэясу\Tokugawa Ieyasu.avi
Format : AVI
Format/Info : Audio Video Interleave
File size : 1.47 GiB
Duration : 2h 23mn
Overall bit rate : 1 465 Kbps
Writing application : VirtualDubMod 1.5.10.3 | www.virtualdub-fr.org || (build 2550/release)
Writing library : VirtualDubMod build 2550/release
Video
ID : 0
Format : MPEG-4 Visual
Format profile : Advanced Simple@L5
Format settings, BVOP : 1
Format settings, QPel : No
Format settings, GMC : No warppoints
Format settings, Matrix : Default (MPEG)
Codec ID : DX50
Codec ID/Hint : DivX 5
Duration : 2h 23mn
Bit rate : 1 328 Kbps
Width : 720 pixels
Height : 320 pixels
Display aspect ratio : 2.25:1
Frame rate : 23.976 fps
Color space : YUV
Chroma subsampling : 4:2:0
Bit depth : 8 bits
Scan type : Progressive
Compression mode : Lossy
Bits/(Pixel*Frame) : 0.240
Stream size : 1.33 GiB (91%)
Writing library : XviD 1.2.1 (UTC 2008-12-04)
Audio
ID : 1
Format : MPEG Audio
Format version : Version 1
Format profile : Layer 3
Codec ID : 55
Codec ID/Hint : MP3
Duration : 2h 23mn
Bit rate mode : Constant
Bit rate : 128 Kbps
Channel count : 2 channels
Sampling rate : 48.0 KHz
Compression mode : Lossy
Stream size : 131 MiB (9%)
Alignment : Aligned on interleaves
Interleave, duration : 42 ms (1.00 video frame)
Interleave, preload duration : 504 ms
Writing library : LAME3.99r
Encoding settings : -m s -V 4 -q 2 -lowpass 17 -b 128
Скриншот c названием фильма Скриншоты
Скачать

Скачать торрент! Князь Токугава Иэясу / Lord Tokugawa Ieyasu (Ито Дайскэ / Daisuke Ito) [1965, Япония, Историческое кино, биография, дзидай-гэки, DVDRip] Sub Rus [Tora Asakura]

Как скачивать? · Что такое торрент? · Рейтинг и ограничения

Сайт не распространяет и не хранит электронные версии произведений, а лишь предоставляет доступ к создаваемому пользователями каталогу ссылок на торрент-файлы, которые содержат только списки хеш-сумм

[Профиль] [ЛС]
Показать сообщения:    
Ответить на тему

Текущее время: Сегодня 11:23

Часовой пояс: GMT + 4



Вы не можете начинать темы
Вы не можете отвечать на сообщения
Вы не можете редактировать свои сообщения
Вы не можете удалять свои сообщения
Вы не можете голосовать в опросах
Вы не можете прикреплять файлы к сообщениям
Вы не можете скачивать файлы