Четверо 2 / Si da ming bu 2 (Гордон Чан / Gordon Chan, Джанет Чун / Janet Chun) [2013, Китай, боевик, фэнтези, HDRip] DVO [GREEN TEA]

Ответить на тему
 
Автор Сообщение

user ®

Стаж: 13 лет

Сообщений: 15071

Пост Пост: #1 от 24-Июл-2014 08:15

[Цитировать]

Четверо 2 / The Four 2 / Si da ming bu 2- -Страна: Китай
Жанр: боевик, фэнтези
Год выпуска: 2013
Продолжительность: 01:57:06-Перевод: Любительский (двухголосый закадровый) [GREEN TEA]-Cубтитры: нет
Оригинальная аудиодорожка: нет
Режиссер: Гордон Чан / Gordon Chan, Джанет Чун / Janet Chun
В ролях: Чао Ден, Лю Ифэй, Колин Чоу, Рональд Чэн, Энтони Вонг Чау-Санг, Чэнь Тайшэн, Янь Лю, Кен Ло, Цзян Иянь, Тэнг Шерен...
Описание: Во второй части 4 констебля из «Небесной полиции»: Бесстрастная, Железнорукий, Жизнекрад и Хладнокровный снова ведут расследование. При раскрытии дела об убийстве в предместье, констебли наталкиваются на новые факты в убийстве семьи Бесстрастной 12 лет назад. Чем дальше «Небесные» продвигаются в расследовании, тем больше открывается тайн, заставляющих их сделать выбор между прошлым и будущим…
Релиз от -
Сэмпл: http://multi-up.com/988182
Качество видео: HDRip
Формат видео: AVI
Видео: MPEG-4 Visual at 758 Кбит/сек; 688 x 288 (2.389) at 23.976 fps
Аудио: MPEG Audio at 128 Кбит/сек; 2 канала, 48,0 КГц
Автор -
MediaInfo
Общее
Полное имя : D:\Фильмы\Азиатские\Четверо 2\The Four 2.2013.HDRip.XviD.745MB. rip by [Assassin's Creed].avi
Формат : AVI
Формат/Информация : Audio Video Interleave
Размер файла : 750 Мбайт
Продолжительность : 1 ч. 57 м.
Общий поток : 895 Кбит/сек
Программа кодирования : VirtualDubMod 1.5.10.3 | www.virtualdub-fr.org || (build 2550/release)
Библиотека кодирования : VirtualDubMod build 2550/release
Видео
Идентификатор : 0
Формат : MPEG-4 Visual
Профиль формата : Advanced Simple@L5
Параметр BVOP формата : 1
Параметр QPel формата : Нет
Параметр GMC формата : Без точки перехода
Параметр матрицы формата : Default (MPEG)
Идентификатор кодека : XVID
Идентификатор кодека/Подсказка : XviD
Продолжительность : 1 ч. 57 м.
Битрейт : 758 Кбит/сек
Ширина : 688 пикселей
Высота : 288 пикселей
Соотношение сторон : 2,40:1
Частота кадров : 23,976 кадра/сек
Цветовое пространство : YUV
Субдискретизация насыщенности : 4:2:0
Битовая глубина : 8 бит
Тип развёртки : Прогрессивная
Метод сжатия : С потерями
Бит/(Пиксели*Кадры) : 0.160
Размер потока : 635 Мбайт (85%)
Библиотека кодирования : XviD 1.2.1 (UTC 2008-12-04)
Аудио
Идентификатор : 1
Формат : MPEG Audio
Версия формата : Version 1
Профиль формата : Layer 3
Идентификатор кодека : 55
Идентификатор кодека/Подсказка : MP3
Продолжительность : 1 ч. 57 м.
Вид битрейта : Постоянный
Битрейт : 128 Кбит/сек
Каналы : 2 канала
Частота : 48,0 КГц
Метод сжатия : С потерями
Размер потока : 107 Мбайт (14%)
Выравнивание : Соединение по промежуткам
Продолжительность промежутка : 42 мс. (1,00 видеокадр)
Время предзагрузки промежутка : 504 мс.
Библиотека кодирования : LAME3.99r
Настройки программы : -m s -V 4 -q 2 -lowpass 17 -b 128
Скриншот c названием фильма Скриншоты
Скачать

Скачать торрент! Четверо 2 / Si da ming bu 2 (Гордон Чан / Gordon Chan, Джанет Чун / Janet Chun) [2013, Китай, боевик, фэнтези, HDRip] DVO [GREEN TEA]

Как скачивать? · Что такое торрент? · Рейтинг и ограничения

Сайт не распространяет и не хранит электронные версии произведений, а лишь предоставляет доступ к создаваемому пользователями каталогу ссылок на торрент-файлы, которые содержат только списки хеш-сумм

[Профиль] [ЛС]
Показать сообщения:    
Ответить на тему

Текущее время: Сегодня 16:16

Часовой пояс: GMT + 4



Вы не можете начинать темы
Вы не можете отвечать на сообщения
Вы не можете редактировать свои сообщения
Вы не можете удалять свои сообщения
Вы не можете голосовать в опросах
Вы не можете прикреплять файлы к сообщениям
Вы не можете скачивать файлы