Семь стадий любви / Dedh Ishqiya (Абхишек Чаубей / Abhishek Chaubey) [2014, Индия, комедия, драма, триллер, BDRip] Sub Rus (nml68)

Ответить на тему
 
Автор Сообщение

user ®

Стаж: 12 лет

Сообщений: 15092

Пост Пост: #1 от 24-Июл-2014 08:15

[Цитировать]

Семь стадий любви / Dedh Ishqiya
Страна: Индия
Жанр: комедия, драма, триллер
Год выпуска: 2014
Продолжительность: 02:27:32
Перевод: Субтитры (nml68)
Cубтитры: русские
Оригинальная аудиодорожка: хинди
Режиссер: Абхишек Чаубей / Abhishek Chaubey
В ролях: Насируддин Шах, Мадхури Дикшит, Аршад Варси, Хума Куреши, Виджай Рааз, Манодж Пахва, Салман Шахид, Шраддха Капур
Описание: Кхалу-джан (Насируддин Шах) и Баббан (Аршад Варси), два вора-романтика, возвращаются в продолжении нашумевшего и успешного фильма Ishqiya со своими романтическими приключениями. И на этот раз любовь проведет их через семь стадий ЛЮБВИ... с прекрасной и опасной Мадхури Дикшит в роли Бегум Пары и Хумой Куреши в роли Муннии.
Сэмпл: http://multi-up.com/988029
Качество видео: BDRip
Формат видео: MKV
Видео: H.264 1280x544 2.35:1 23.976 fps 890 kbps
Аудио: AC3 48 kHz 192 kbps 2.0 (stereo)
MediaInfo
Format : Matroska
Format version : Version 2
File size : 1.12 GiB
Duration : 2h 27mn
Overall bit rate : 1 084 Kbps
Encoded date : UTC 2014-05-29 06:23:22
Writing application : mkvmerge v4.0.0 ('The Stars were mine') сборка от Jun 6 2010 16:18:42
Writing library : libebml v1.0.0 + libmatroska v1.0.0
Video
ID : 1
Format : AVC
Format/Info : Advanced Video Codec
Format profile : High@L4.1
Format settings, CABAC : Yes
Format settings, ReFrames : 12 frames
Codec ID : V_MPEG4/ISO/AVC
Duration : 2h 27mn
Bit rate : 890 Kbps
Width : 1 280 pixels
Height : 544 pixels
Display aspect ratio : 2.35:1
Frame rate mode : Constant
Frame rate : 23.976 fps
Color space : YUV
Chroma subsampling : 4:2:0
Bit depth : 8 bits
Scan type : Progressive
Bits/(Pixel*Frame) : 0.053
Stream size : 918 MiB (80%)
Writing library : x264 core 138 r2358 9e941d1
Encoding settings : cabac=1 / ref=12 / deblock=1:-1:-1 / analyse=0x3:0x113 / me=umh / subme=10 / psy=1 / psy_rd=1.00:0.10 / mixed_ref=1 / me_range=18 / chroma_me=1 / trellis=2 / 8x8dct=1 / cqm=0 / deadzone=21,11 / fast_pskip=0 / chroma_qp_offset=-3 / threads=36 / lookahead_threads=4 / sliced_threads=0 / nr=0 / decimate=1 / interlaced=0 / bluray_compat=0 / constrained_intra=0 / bframes=8 / b_pyramid=2 / b_adapt=2 / b_bias=0 / direct=1 / weightb=1 / open_gop=0 / weightp=2 / keyint=240 / keyint_min=23 / scenecut=40 / intra_refresh=0 / rc_lookahead=40 / rc=2pass / mbtree=1 / bitrate=890 / ratetol=1.0 / qcomp=0.60 / qpmin=0 / qpmax=69 / qpstep=4 / cplxblur=20.0 / qblur=0.5 / vbv_maxrate=62500 / vbv_bufsize=78125 / nal_hrd=none / ip_ratio=1.40 / aq=1:1.00
Language : English
Default : No
Forced : No
Color primaries : Generic film
Transfer characteristics : BT.709
Matrix coefficients : BT.709
Audio
ID : 2
Format : AC-3
Format/Info : Audio Coding 3
Mode extension : CM (complete main)
Format settings, Endianness : Big
Codec ID : A_AC3
Duration : 2h 27mn
Bit rate mode : Constant
Bit rate : 192 Kbps
Channel(s) : 2 channels
Channel positions : Front: L R
Sampling rate : 48.0 KHz
Bit depth : 16 bits
Compression mode : Lossy
Delay relative to video : 24ms
Stream size : 203 MiB (18%)
Default : No
Forced : No
Скриншот c названием фильма Скриншоты
Скачать

Скачать торрент! Семь стадий любви / Dedh Ishqiya (Абхишек Чаубей / Abhishek Chaubey) [2014, Индия, комедия, драма, триллер, BDRip] Sub Rus (nml68)

Как скачивать? · Что такое торрент? · Рейтинг и ограничения

Сайт не распространяет и не хранит электронные версии произведений, а лишь предоставляет доступ к создаваемому пользователями каталогу ссылок на торрент-файлы, которые содержат только списки хеш-сумм

[Профиль] [ЛС]
Показать сообщения:    
Ответить на тему

Текущее время: Сегодня 15:17

Часовой пояс: GMT + 4



Вы не можете начинать темы
Вы не можете отвечать на сообщения
Вы не можете редактировать свои сообщения
Вы не можете удалять свои сообщения
Вы не можете голосовать в опросах
Вы не можете прикреплять файлы к сообщениям
Вы не можете скачивать файлы