Монстр / Monster / Monseuteo (Хван Ин Хо / Hwang In-Ho) [2014, Южная Корея, триллер, комедия, DVDRip] Sub rus

Ответить на тему
 
Автор Сообщение

user ®

Стаж: 13 лет

Сообщений: 15071

Пост Пост: #1 от 24-Июл-2014 05:05

[Цитировать]

Монстр / Monster / Monseuteo
Страна Южная Корея
Жанр: триллер, комедия
Год выпуска: 2014
Продолжительность: 01:53:43
Перевод: Субтитры
Доп.инфо о переводе: Перевод – julz_nsk
Cубтитры: русские, отключаемые, srt
Оригинальная аудиодорожка: корейский
Режиссер: Хван Ин Хо / Hwang In-Ho
В ролях: Lee Min-Ki / Ли Мин Ки в роли Тхэ Су
Kim Go-Eun / Ким Го Ын в роли Пак Бок Сун
Kim Roe Ha / Ким Рве Ха в роли Ик Сана
Kim Bu-Seon / Ким Пу Сон в роли мамы Тхэ Су
Ahn Seo-Hyun / Ан Со Хён в роли На Ри
Nam Kyoung-Eub / Нам Кён Ып в роли босса Чона
Park Chul-Min / Пак Чхоль Мин в роли босса Пака (камео)
Описание: Бок Сун живет вдвоем со своей младшей сестрой и продает овощи на базаре. Бок Сун слегка не в себе, а когда злится, совсем начинает сходить с ума.
Однажды они случайно узнают страшную тайну жестокого убийцы и на них начинается охота. Однако результат в этой игре непредсказуем.
Это не классический корейский триллер. А чернушно-юморная история в трешевом обрамлении.

IMDB: 6.4/10 (37 votes)
http://multi-up.com/988202
Качество видео: DVDRip
Формат видео: AVI
Видео кодек: XviD
Аудио кодек: AC-3
Видео: 720х304, MPEG-4, 23.976 fps, ~ 1 449 kbps avg, 0.276 bit/pixel
Аудио: 48 kHz, 6 ch, ~ 384 kbps (Korean)
Формат субтитров: softsub (SRT)
MediaInfo
General
Complete name : E:\Monster\Monster.avi
Format : AVI
Format/Info : Audio Video Interleave
File size : 1.46 GiB
Duration : 1h 53mn
Overall bit rate : 1 843 Kbps
Writing application : VirtualDubMod 1.5.10.3 | www.virtualdub-fr.org || (build 2550/release)
Writing library : VirtualDubMod build 2550/release
Video #0
ID : 0
Format : MPEG-4 Visual
Format profile : AdvancedSimple@L5
Format settings, BVOP : Yes
Format settings, QPel : No
Format settings, GMC : No warppoints
Format settings, Matrix : Default (MPEG)
Codec ID : XVID
Codec ID/Hint : XviD
Duration : 1h 53mn
Bit rate : 1 449 Kbps
Width : 720 pixels
Height : 304 pixels
Display aspect ratio : 2.35:1
Frame rate : 23.976 fps
Resolution : 24 bits
Colorimetry : 4:2:0
Scan type : Progressive
Bits/(Pixel*Frame) : 0.276
Stream size : 1.15 GiB (79%)
Writing library : XviD 1.2.1 (UTC 2008-12-04)
Audio #1
ID : 1
Format : AC-3
Format/Info : Audio Coding 3
Codec ID : 2000
Duration : 1h 53mn
Bit rate mode : Constant
Bit rate : 384 Kbps
Channel(s) : 6 channels
Channel positions : Front: L C R, Surround: L R, LFE
Sampling rate : 48.0 KHz
Stream size : 312 MiB (21%)
Alignment : Split accross interleaves
Interleave, duration : 42 ms (1.00 video frame)
Interleave, preload duration : 500 ms
Скриншот с названием фильма Скриншоты Субтитры
1
00:01:27,020 --> 00:01:28,966
Зеленый лук, пожалуйста.
2
00:01:29,055 --> 00:01:31,968
- С вас 3$.
- Это дорого!
3
00:01:32,058 --> 00:01:35,039
Да что вы!
Здесь он самый дешевый.
4
00:01:35,995 --> 00:01:38,999
Разве вы не видите,
как все дорожает?
5
00:01:39,099 --> 00:01:42,280
- Все натуральное.
- Но все равно.
6
00:01:44,204 --> 00:01:46,684
Думаете, что Бок Сун глупая?
7
00:01:46,706 --> 00:01:49,784
- Ты поумнела.
- Огурцы и баклажаны бесплатно.
8
00:02:04,057 --> 00:02:05,968
Сегодня распродажа
заканчивается!
9
00:02:06,025 --> 00:02:06,969
Зеленый лук за 1$!
10
00:02:07,026 --> 00:02:08,400
Лук за 1$!
11
00:02:08,495 --> 00:02:09,974
Огурцы за 1$!
12
00:02:10,063 --> 00:02:12,743
Она спит?
13
00:02:17,524 --> 00:02:20,516
Бок Сун, как дела?
14
00:02:21,040 --> 00:02:23,041
У Ын Чон тоже все хорошо?
15
00:02:23,042 --> 00:02:29,025
Бедняжка, твоя мама бросила тебя,
когда ты была совсем маленькой.
16
00:02:29,082 --> 00:02:32,050
Поэтому ты не стала умной.
17
00:02:32,051 --> 00:02:39,026
Не ходи в школу. Много работай
и зарабатывай на жизнь.
18
00:02:39,092 --> 00:02:43,097
Ты должна заботиться
о своей младшей сестре.
19
00:02:44,097 --> 00:02:49,103
Как я могу бросить
такую глупую девочку?
20
00:02:51,604 --> 00:02:53,049
Бок Сун.
21
00:02:53,106 --> 00:02:57,054
Когда станешь старушкой,
пой эту песню.
22
00:03:22,012 --> 00:03:23,114
Лапша с соусом
из черной фасоли!
23
00:03:23,169 --> 00:03:25,715
- Лапша?
- Да.
24
00:03:27,140 --> 00:03:29,086
Горячо.
25
00:03:30,143 --> 00:03:33,488
За тобой долг 2$.
26
00:03:34,724 --> 00:03:36,091
Но...
27
00:03:37,784 --> 00:03:42,096
Зачем мне твои огурцы?
Ты деньги давай.
28
00:03:42,155 --> 00:03:44,535
- И цуккини мне не нужны.
- Лапшу, пожалуйста.
29
00:03:44,639 --> 00:03:46,101
Только не это!
30
00:03:46,292 --> 00:03:49,373
Я видел, что
Бен Чу здесь работает.
Скачать

Скачать торрент! Монстр / Monster / Monseuteo (Хван Ин Хо / Hwang In-Ho) [2014, Южная Корея, триллер, комедия, DVDRip] Sub rus

Как скачивать? · Что такое торрент? · Рейтинг и ограничения

Сайт не распространяет и не хранит электронные версии произведений, а лишь предоставляет доступ к создаваемому пользователями каталогу ссылок на торрент-файлы, которые содержат только списки хеш-сумм

[Профиль] [ЛС]
Показать сообщения:    
Ответить на тему

Текущее время: Сегодня 10:22

Часовой пояс: GMT + 4



Вы не можете начинать темы
Вы не можете отвечать на сообщения
Вы не можете редактировать свои сообщения
Вы не можете удалять свои сообщения
Вы не можете голосовать в опросах
Вы не можете прикреплять файлы к сообщениям
Вы не можете скачивать файлы