Все вещи для всех людей / All Things to All Men / The Deadly Game (Джордж Иссак / George Isaac) [2013, Великобритания, триллер, криминал, BDRip 720p] Subs (Rus, Eng) + Original (Eng)

Ответить на тему
 
Автор Сообщение

user ®

Стаж: 7 лет 7 месяцев

Сообщений: 20008

Пост Пост: #1 от 23-Июл-2014 20:40

[Цитировать]

Все вещи для всех людей / All Things to All Men / The Deadly Game Страна: Великобритания
Жанр: триллер, криминал
Год выпуска: 2013
Продолжительность: 01:25:02
Перевод: Субтитры
Cубтитры: английские (SDH), русские (Дагнарус)
Оригинальная аудиодорожка: английский
Режиссер: Джордж Иссак / George Isaac
В ролях: Тоби Стивенс, Руфус Сьюэлл, Марк Бэдхэм, Гэбриел Бирн, Гил Дарнелл, Том Дэвис, Ian Driving, Джеймс Фрейн, Лео Грегори, МС Харви
Описание:
Криминальный триллер об игре в кошки-мышки, которую затеяли на улицах современного Лондона полицейский босс, криминальный авторитет Джозеф Корсо и преступник по имени Райли.
Там где замешаны большие деньги нет, и не может быть места взаимному доверию и дружбе. Вот и главный герой фильма, идя на преступление, не может доверять даже своим сообщникам. На него открывается настоящая охота и самое страшное, что противостоять злодеям он должен в одиночку. Но судьба хранит уверенных в себе людей, и ему удается, преодолев личные моральные устои справиться с врагами. Устраняя одну преграду за другой со своего пути, он движется к заветной цели и именно такая целеустремленность позволяет ему сохранить жизнь, а возможно и приобрести кое-что еще.
- ||-Тип релиза: BDRip 720p (рип от tythegunner@LolHD)

Контейнер: MKV
Видео: AVC (x264), 1280x544 (2,35:1) at 23,976 fps, 7016 Кbps, 0.420 bpp
Аудио 1: DTS; 1536 Kbps; CBR; 6 ch; 48 khz | Английский |
Формат субтитров: softsub (SRT)
Скриншоты || x264 Info || MediaInfo || Notes
MediaInfo
Общее
Уникальный идентификатор                 : 239186282163483748071627008713051523839 (0xB3F19A3105DFCDE4812003711FBECAFF)
Полное имя                               : Все вещи для всех людей.2013.RUSSUB.720p.BluRay.x264-LolHD.mkv
Формат                                   : Matroska
Версия формата                           : Version 4 / Version 2
Размер файла                             : 5,17 Гбайт
Продолжительность                        : 1 ч. 25 м.
Общий поток                              : 8698 Кбит/сек
Название фильма                          : All Things to All Men [720p] [2013] RUSSUB
Дата кодирования                         : UTC 2014-07-22 20:20:30
Программа кодирования                    : mkvmerge v7.0.0 ('Where We Going') 32bit built on Jun  9 2014 15:08:34
Библиотека кодирования                   : libebml v1.3.0 + libmatroska v1.4.1
Видео
Идентификатор                            : 1
Формат                                   : AVC
Формат/Информация                        : Advanced Video Codec
Профиль формата                          : High@L4.1
Параметр CABAC формата                   : Да
Параметр ReFrames формата                : 12 кадров
Идентификатор кодека                     : V_MPEG4/ISO/AVC
Продолжительность                        : 1 ч. 25 м.
Битрейт                                  : 7016 Кбит/сек
Ширина                                   : 1280 пикселей
Высота                                   : 544 пикселя
Соотношение сторон                       : 2,35:1
Режим частоты кадров                     : Постоянный
Частота кадров                           : 23,976 кадра/сек
Цветовое пространство                    : YUV
Субдискретизация насыщенности            : 4:2:0
Битовая глубина                          : 8 бит
Тип развёртки                            : Прогрессивная
Бит/(Пиксели*Кадры)                      : 0.420
Размер потока                            : 4,17 Гбайт (81%)
Заголовок                                : profile.php?mode=viewprofile&u=22488948
Библиотека кодирования                   : x264 core 133 r2334 a3ac64b
Настройки программы                      : cabac=1 / ref=12 / deblock=1:-3:-3 / analyse=0x3:0x133 / me=umh / subme=10 / psy=1 / psy_rd=1.10:0.00 / mixed_ref=1 / me_range=16 / chroma_me=1 / trellis=2 / 8x8dct=1 / cqm=0 / deadzone=21,11 / fast_pskip=0 / chroma_qp_offset=-2 / threads=6 / lookahead_threads=1 / sliced_threads=0 / nr=0 / decimate=1 / interlaced=0 / bluray_compat=0 / constrained_intra=0 / bframes=9 / b_pyramid=2 / b_adapt=2 / b_bias=0 / direct=3 / weightb=1 / open_gop=0 / weightp=2 / keyint=250 / keyint_min=23 / scenecut=40 / intra_refresh=0 / rc=crf / mbtree=0 / crf=16.5 / qcomp=0.75 / qpmin=0 / qpmax=69 / qpstep=4 / ip_ratio=1.40 / pb_ratio=1.30 / aq=1:0.75
Язык                                     : English
Default                                  : Да
Forced                                   : Нет
Аудио
Идентификатор                            : 2
Формат                                   : DTS
Формат/Информация                        : Digital Theater Systems
Режим                                    : 16
Параметр Endianness формата              : Big
Идентификатор кодека                     : A_DTS
Продолжительность                        : 1 ч. 25 м.
Вид битрейта                             : Постоянный
Битрейт                                  : 1509 Кбит/сек
Каналы                                   : 6 каналов
Расположение каналов                     : Front: L C R, Side: L R, LFE
Частота                                  : 48,0 КГц
Битовая глубина                          : 24 бит
Метод сжатия                             : С потерями
Размер потока                            : 918 Мбайт (17%)
Язык                                     : English
Default                                  : Да
Forced                                   : Нет
Текст #1
Идентификатор                            : 3
Формат                                   : UTF-8
Идентификатор кодека                     : S_TEXT/UTF8
Идентификатор кодека/Информация          : UTF-8 Plain Text
Заголовок                                : [Дагнарус]
Язык                                     : Russian
Default                                  : Да
Forced                                   : Нет
Текст #2
Идентификатор                            : 4
Формат                                   : UTF-8
Идентификатор кодека                     : S_TEXT/UTF8
Идентификатор кодека/Информация          : UTF-8 Plain Text
Заголовок                                : SDH
Язык                                     : English
Default                                  : Нет
Forced                                   : Нет
Меню
00:00:00.000                             : en:Chapter 01
00:05:40.090                             : en:Chapter 02
00:11:38.781                             : en:Chapter 03
00:15:45.027                             : en:Chapter 04
00:20:17.174                             : en:Chapter 05
00:25:21.520                             : en:Chapter 06
00:29:31.728                             : en:Chapter 07
00:36:23.390                             : en:Chapter 08
00:42:04.564                             : en:Chapter 09
00:47:42.777                             : en:Chapter 10
00:50:18.182                             : en:Chapter 11
00:53:57.568                             : en:Chapter 12
01:00:24.454                             : en:Chapter 13
01:04:50.220                             : en:Chapter 14
01:08:05.248                             : en:Chapter 15
01:11:26.532                             : en:Chapter 16
x264 Infox264 [info]: frame I:944 Avg QP:13.87 size:125994
x264 [info]: frame P:22442 Avg QP:15.59 size: 66620
x264 [info]: frame B:98942 Avg QP:17.68 size: 30012
x264 [info]: consecutive B-frames: 1.5% 1.7% 3.4% 11.4% 12.5% 35.6% 12.4% 14.9% 4.8% 1.9%
Скачать

Скачать торрент!

Как скачивать? · Что такое торрент? · Рейтинг и ограничения

Сайт не распространяет и не хранит электронные версии произведений, а лишь предоставляет доступ к создаваемому пользователями каталогу ссылок на торрент-файлы, которые содержат только списки хеш-сумм

[Профиль] [ЛС]
Показать сообщения:    
Ответить на тему

Текущее время: Сегодня 00:01

Часовой пояс: GMT + 4



Вы не можете начинать темы
Вы не можете отвечать на сообщения
Вы не можете редактировать свои сообщения
Вы не можете удалять свои сообщения
Вы не можете голосовать в опросах
Вы не можете прикреплять файлы к сообщениям
Вы не можете скачивать файлы