Теорема Зеро / The Zero Theorem (Терри Гиллиам / Terry Gilliam) [2013, США, Румыния, Великобритания, фантасмагория, антиутопия, WEB-DL 1080p] Sub Rus, Eng + Original Eng

Ответить на тему
 
Автор Сообщение

user ®

Стаж: 7 лет 7 месяцев

Сообщений: 20008

Пост Пост: #1 от 23-Июл-2014 17:30

[Цитировать]

Теорема зеро / The Zero Theorem
Страна: США, Румыния, Великобритания
Студия: VOLTAGE pictures
Жанр: фантасмагория, антиутопия
Год выпуска: 2013
Продолжительность: 1:46:25
Перевод: Субтитры
Cубтитры: русские, английские
Оригинальная аудиодорожка: английский
Режиссер: Терри Гиллиам / Terry Gilliam
В ролях: Кристоф Вальц, Мелани Тьерри, Дэвид Тьюлис, Лукас Хеджес, Мэтт Дэймон, Бен Уишоу,
Тильда Суинтон, Санджив Бхаскар, Ингрид Бису, Маргарита Дойл, Петер Стормаре.
Описание: В центре сюжета картины «Теорема Зеро», действие которой разворачивается в утопическом мире, – эксцентричный персонаж, затворник – компьютерный гений Коэн Лет, который никак не может решить одну неразрешимую теорему Зеро – есть ли у жизни цель и что это вообще такое.
Благодаря костюму для виртуальной реальности, изобретенному мальчиком Бобом, Лету удается совершить путешествие в скрытое пространство и узнать тайну своей души.
Эту разгадку ищет не только он сам, но и таинственный Менеджмент, который правит всем миром посредством всевидящих устройств под названием ManCams.
Меню: нет
Сэмпл: http://multi-up.com/988278
Тип релиза: WEB-DL 1080p
Контейнер: MKV
Видео: AVC, 1816x1034, 16:9, 4638 Kbps, 23.976 fps
Аудио: английский, AC3, 6 канальный, 48.0 Khz, 384 Kbps
Формат субтитров: prerendered (встроенные)

MediaInfo
General
Unique ID : 194763773070320362060960339834330775401 (0x9286236541967902995CDAD7BAA17F69)
Complete name : F:\L`a Cinema\Европа\The.Zero.Theorem.2013.ENG .mkv
Format : Matroska
Format version : Version 4 / Version 2
File size : 3.81 GiB
Duration : 1h 46mn
Overall bit rate : 5 124 Kbps
Encoded date : UTC 2014-07-22 23:48:56
Writing application : mkvmerge v7.0.0 ('Where We Going') 32bit built on Jun 9 2014 15:08:34
Writing library : libebml v1.3.0 + libmatroska v1.4.1
Attachment : Yes / Yes / Yes / Yes
Video
ID : 3
Format : AVC
Format/Info : Advanced Video Codec
Format profile : High@L4.0
Format settings, CABAC : Yes
Format settings, ReFrames : 4 frames
Codec ID : V_MPEG4/ISO/AVC
Duration : 1h 46mn
Bit rate : 4 638 Kbps
Width : 1 816 pixels
Height : 1 034 pixels
Display aspect ratio : 16:9
Frame rate mode : Constant
Frame rate : 23.976 fps
Color space : YUV
Chroma subsampling : 4:2:0
Bit depth : 8 bits
Scan type : Progressive
Bits/(Pixel*Frame) : 0.103
Stream size : 3.45 GiB (91%)
Title : The.Zero.Theorem.2013.1080p.WEB-DL.DD5.1.H264-RARBG
Language : English
Default : Yes
Forced : No
Color primaries : BT.709
Transfer characteristics : BT.709
Matrix coefficients : BT.709
Audio
ID : 4
Format : AC-3
Format/Info : Audio Coding 3
Mode extension : CM (complete main)
Format settings, Endianness : Big
Codec ID : A_AC3
Duration : 1h 46mn
Bit rate mode : Constant
Bit rate : 384 Kbps
Channel(s) : 6 channels
Channel positions : Front: L C R, Side: L R, LFE
Sampling rate : 48.0 KHz
Bit depth : 16 bits
Compression mode : Lossy
Stream size : 292 MiB (7%)
Title : The.Zero.Theorem.2013.1080p.WEB-DL.DD5.1.H264-RARBG
Language : English
Default : Yes
Forced : No
Text #1
ID : 1
Format : UTF-8
Codec ID : S_TEXT/UTF8
Codec ID/Info : UTF-8 Plain Text
Language : English
Default : Yes
Forced : No
Text #2
ID : 2
Format : UTF-8
Codec ID : S_TEXT/UTF8
Codec ID/Info : UTF-8 Plain Text
Language : Russian
Default : No
Forced : No
Menu
00:00:00.000 : en:1
00:05:36.000 : en:2
00:12:44.000 : en:3
00:20:39.000 : en:4
00:26:00.000 : en:5
00:34:36.000 : en:6
00:38:34.000 : en:7
00:43:12.000 : en:8
00:47:37.000 : en:9
00:55:47.000 : en:10
01:00:50.000 : en:11
01:05:45.000 : en:12
01:15:41.000 : en:13
01:25:07.000 : en:14
01:32:15.000 : en:15
01:38:49.000 : en:16
Скриншоты Пример субтитров
707
00:49:00,037 --> 00:49:01,270
Подпишитесь здесь. Что?
708
00:49:01,272 --> 00:49:02,838
Квитанция доставки.
709
00:49:02,840 --> 00:49:06,509
Мы доставили... Боба. Прислали его
помочь Вам. Распишитесь.
710
00:49:08,211 --> 00:49:11,180
Замечательно. Ровно через
четыре часа мы заберем его.
711
00:49:11,182 --> 00:49:13,316
Не потеряйте его. Не теряйте его.
712
00:49:14,651 --> 00:49:16,886
На твоём месте я был бы
повнимательнее с близнецами.
713
00:49:16,888 --> 00:49:18,955
Они выглядят спокойно,
но они остались бы такими,
714
00:49:18,957 --> 00:49:20,523
сгори ты тут заживо.
715
00:49:21,725 --> 00:49:26,595
Да..., у вас здесь довольно
- жуткая квартирка.
716
00:49:26,597 --> 00:49:28,331
Всё в порядке?
717
00:49:28,333 --> 00:49:30,399
Фактически, мы умираем.
718
00:49:30,401 --> 00:49:32,368
Я говорил насчёт себя.
719
00:49:32,370 --> 00:49:33,769
Ты - ужасно выглядишь, Боб.
720
00:49:33,771 --> 00:49:36,272
Пожалуйста прекратите называть нас Бобом?
721
00:49:36,274 --> 00:49:39,008
Как Вы хотите, чтобы я называл Вас? Г-н leth.
722
00:49:39,010 --> 00:49:40,209
Leth?
723
00:49:40,211 --> 00:49:43,980
Нет, нет, это не звучит.
724
00:49:43,982 --> 00:49:46,949
Лучше Qohen. Q, никакой u, o h e n.
725
00:49:46,951 --> 00:49:48,617
Может назвать тебя просто одной буквой.
726
00:49:48,619 --> 00:49:50,853
Q. Или q.
727
00:49:50,855 --> 00:49:52,688
Да, q хорошо.
Скачать

Скачать торрент!

Как скачивать? · Что такое торрент? · Рейтинг и ограничения

Сайт не распространяет и не хранит электронные версии произведений, а лишь предоставляет доступ к создаваемому пользователями каталогу ссылок на торрент-файлы, которые содержат только списки хеш-сумм

[Профиль] [ЛС]
Показать сообщения:    
Ответить на тему

Текущее время: Сегодня 05:58

Часовой пояс: GMT + 4



Вы не можете начинать темы
Вы не можете отвечать на сообщения
Вы не можете редактировать свои сообщения
Вы не можете удалять свои сообщения
Вы не можете голосовать в опросах
Вы не можете прикреплять файлы к сообщениям
Вы не можете скачивать файлы