Дивергент / Divergent (Нил Бёргер / Neil Burger) [2014, США, фантастика, мелодрама, приключения, WEB-DL 720p] Dub (iTunes Russia)

Ответить на тему
 
Автор Сообщение

user ®

Стаж: 7 лет 7 месяцев

Сообщений: 20008

Пост Пост: #1 от 22-Июл-2014 17:35

[Цитировать]

Дивергент / Divergent
Страна: США
Студия: Summit Entertainment, Red Wagon Entertainment
Жанр: фантастика, мелодрама, приключения
Год выпуска: 2014
Продолжительность: 02:13:57
Перевод: Профессиональный (дублированный) | iTunes Russia
Cубтитры: нет
Оригинальная аудиодорожка: нет
Режиссер: Нил Бёргер / Neil Burger
В ролях: Шейлин Вудли, Тео Джеймс, Джай Кортни, Кейт Уинслет, Зои Кравиц, Майлз Теллер, Эшли Джадд, Тони Голдуин, Мэгги Кью, Рэй Стивенсон
Описание: Действие развивается на Земле в будущем, в деспотичном Чикаго. Все подростки, достигшие 16 лет, обязаны выбрать одну из пяти фракций и присоединиться к ней на всю оставшуюся жизнь. Каждая фракция представляет определенное качество: Искренность, Отречение, Бесстрашие, Дружелюбие и Эрудиция.
Релиз: Dreamcatcher

Сэмпл: http://multi-up.com/988068
Тип релиза: WEB-DL 720p
Контейнер: MKV
Видео: 1280@960x720 at 25.000 fps, MPEG-4 AVC, ~4000 kbps avg
Аудио: Russian: 48 kHz, AC3, 3/2 (L,C,R,l,r) + LFE ch, ~384.00 kbps avg |Дубляж, iTunes Russia|
Главы: есть

MediaInfo
General
Unique ID : 230191563703680143080481514985271952595 (0xAD2D485514956EC284CB66751DC984D3)
Complete name : D:\Видео\Movies\Divergent.2014.720p.WEB-DL.Rus.HDCLUB.mkv
Format : Matroska
Format version : Version 2
File size : 4.02 GiB
Duration : 2h 13mn
Overall bit rate : 4 301 Kbps
Movie name : Divergent (2014) - Release for HDCLUB
Encoded date : UTC 2014-07-21 20:15:58
Writing application : mkvmerge v3.4.0 ('Rapunzel') built on May 15 2010 09:38:20
Writing library : libebml v0.8.0 + libmatroska v0.9.0
Video
ID : 1
Format : AVC
Format/Info : Advanced Video Codec
Format profile : Main@L3.1
Format settings, CABAC : No
Format settings, ReFrames : 2 frames
Codec ID : V_MPEG4/ISO/AVC
Duration : 2h 13mn
Bit rate : 3 831 Kbps
Width : 960 pixels
Height : 720 pixels
Display aspect ratio : 16:9
Frame rate mode : Constant
Frame rate : 25.000 fps
Color space : YUV
Chroma subsampling : 4:2:0
Bit depth : 8 bits
Scan type : Progressive
Bits/(Pixel*Frame) : 0.222
Stream size : 3.58 GiB (89%)
Title : Divergent (2014) - Release for HDCLUB
Language : English
Default : Yes
Forced : No
Color primaries : BT.709
Transfer characteristics : BT.709
Matrix coefficients : BT.709
Audio
ID : 2
Format : AC-3
Format/Info : Audio Coding 3
Mode extension : CM (complete main)
Format settings, Endianness : Big
Codec ID : A_AC3
Duration : 2h 13mn
Bit rate mode : Constant
Bit rate : 384 Kbps
Channel count : 6 channels
Channel positions : Front: L C R, Side: L R, LFE
Sampling rate : 48.0 KHz
Bit depth : 16 bits
Compression mode : Lossy
Stream size : 368 MiB (9%)
Title : AC3 5.1 @ 384 kbps - DUB, iTunes
Language : Russian
Default : Yes
Forced : No
Menu
00:00:00.000 : en:Глава 1
00:07:13.000 : en:Глава 2
00:12:11.000 : en:Глава 3
00:17:35.000 : en:Глава 4
00:22:33.000 : en:Глава 5
00:29:06.000 : en:Глава 6
00:33:58.000 : en:Глава 7
00:39:25.000 : en:Глава 8
00:43:45.000 : en:Глава 9
00:49:38.000 : en:Глава 10
00:54:40.000 : en:Глава 11
00:59:37.000 : en:Глава 12
01:03:48.000 : en:Глава 13
01:10:19.000 : en:Глава 14
01:14:42.000 : en:Глава 15
01:20:07.000 : en:Глава 16
01:25:03.000 : en:Глава 17
01:32:05.000 : en:Глава 18
01:38:01.000 : en:Глава 19
01:43:31.000 : en:Глава 20
01:49:30.000 : en:Глава 21
01:53:59.000 : en:Глава 22
01:58:26.000 : en:Глава 23
02:03:56.000 : en:Глава 24
Скриншоты
Скачать

Скачать торрент!

Как скачивать? · Что такое торрент? · Рейтинг и ограничения

Сайт не распространяет и не хранит электронные версии произведений, а лишь предоставляет доступ к создаваемому пользователями каталогу ссылок на торрент-файлы, которые содержат только списки хеш-сумм

[Профиль] [ЛС]
Показать сообщения:    
Ответить на тему

Текущее время: Сегодня 05:11

Часовой пояс: GMT + 4



Вы не можете начинать темы
Вы не можете отвечать на сообщения
Вы не можете редактировать свои сообщения
Вы не можете удалять свои сообщения
Вы не можете голосовать в опросах
Вы не можете прикреплять файлы к сообщениям
Вы не можете скачивать файлы