Долгое падение / A Long Way Down (Паскаль Шомель / Pascal Chaumeil) [2014, Великобритания, Германия, Драма, комедия, BDRip-AVC] Dub + Original + Sub (Rus)

Ответить на тему
 
Автор Сообщение

user ®

Стаж: 7 лет 7 месяцев

Сообщений: 20008

Пост Пост: #1 от 22-Июл-2014 14:25

[Цитировать]

Долгое падение / A Long Way Down
«Life is looking up»

-Страна: Великобритания, Германия
Жанр: Драма, комедия
Год выпуска: 2014
Продолжительность: 01:35:46-Перевод: Профессиональный (дублированный) BD RUS
Cубтитры: русские-Режиссер: Паскаль Шомель / Pascal Chaumeil
В ролях: Пирс Броснан, Имоджен Путс, Аарон Пол, Тони Коллетт, Сэм Нил, Таппенс Мидлтон, Розамунд Пайк, Зара Уайт, Джо Коул, Эвелин Дуа
Описание: Четверо незнакомцев встречаются в канун Нового Года на крыше лондонского небоскреба. Каждый из них поднялся с одной целью — прыгнуть. Очередь в лучший мир заставляет их заключить пакт — дожить до Дня всех влюбленных и оторваться по полной.-Качество видео: BDRip-AVC [Blu-ray disc / 1080p / HDClub]
Формат видео: MKV-Видео: х.264, 1032x430 (2,40:1), 24,000 fps, 1395 Кbps, 0.131 bit/pixel
Аудио 1: 48 kHz, AC3 Dolby Digital, 3/2 (L,C,R,l,r) + LFE ch, 384.00 kbps | DUB
Аудио 2: 48 kHz, AC3 Dolby Digital, 3/2 (L,C,R,l,r) + LFE ch, 384.00 kbps | ENG
Формат субтитров: SoftSub (SRT)
-- [url=http://***/forum/viewtopic.php?t=1677970] [/url]-
-
MediaInfo & log
log
x264 [info]: using SAR=1/1
x264 [info]: using cpu capabilities: MMX2 SSE2Slow SlowCTZ
x264 [info]: profile High, level 4.1
x264 [info]: frame I:1054 Avg QP:15.16 size: 52606
x264 [info]: frame P:28478 Avg QP:18.42 size: 15234
x264 [info]: frame B:108367 Avg QP:20.59 size: 4719
x264 [info]: consecutive B-frames: 1.8% 2.2% 5.8% 21.0% 19.0% 30.3% 9.1% 3.4% 2.7% 1.8% 1.1% 0.6% 0.4% 0.7%
x264 [info]: mb I I16..4: 6.5% 74.0% 19.5%
x264 [info]: mb P I16..4: 2.0% 10.0% 1.6% P16..4: 42.9% 20.2% 13.8% 0.6% 0.2% skip: 8.7%
x264 [info]: mb B I16..4: 0.2% 0.7% 0.1% B16..8: 36.0% 9.8% 2.4% direct: 4.8% skip:46.0% L0:45.0% L1:44.2% BI:10.8%
x264 [info]: 8x8 transform intra:72.2% inter:64.2%
x264 [info]: direct mvs spatial:97.0% temporal:3.0%
x264 [info]: coded y,uvDC,uvAC intra: 70.2% 66.9% 38.6% inter: 16.6% 15.6% 1.2%
x264 [info]: i16 v,h,dc,p: 35% 20% 11% 34%
x264 [info]: i8 v,h,dc,ddl,ddr,vr,hd,vl,hu: 12% 12% 11% 8% 11% 12% 12% 11% 12%
x264 [info]: i4 v,h,dc,ddl,ddr,vr,hd,vl,hu: 13% 11% 6% 8% 13% 13% 13% 10% 13%
x264 [info]: i8c dc,h,v,p: 42% 26% 20% 12%
x264 [info]: Weighted P-Frames: Y:2.5% UV:1.0%
x264 [info]: ref P L0: 44.6% 9.2% 17.3% 7.2% 6.0% 4.7% 4.0% 2.4% 2.2% 2.2% 0.2% 0.0%
x264 [info]: ref B L0: 67.4% 13.1% 7.3% 3.7% 2.9% 2.4% 2.0% 0.9% 0.4%
x264 [info]: ref B L1: 90.7% 9.3%
x264 [info]: kb/s:1393.30
General
Unique ID                                : 180342234181266419080094414599547139809 (0x87ACA6A1B169859C8E4879477CBE36E1)
Complete name                            : D:\ФИЛЬМЫ\A_Long_Way_Down_(2014)_BDRip-AVC_R.G_All_Films.mkv
Format                                   : Matroska
Format version                           : Version 4 / Version 2
File size                                : 1.45 GiB
Duration                                 : 1h 35mn
Overall bit rate                         : 2 164 Kbps
Movie name                               : Долгое падение / A Long Way Down (2014) BDRip-AVC by andre90
Encoded date                             : UTC 2014-07-19 15:57:34
Writing application                      : mkvmerge v7.0.0 ('Where We Going') 32bit built on Jun  9 2014 15:08:34
Writing library                          : libebml v1.3.0 + libmatroska v1.4.1
Cover                                    : Yes
DURATION                                 : 01:29:59.959000000
NUMBER_OF_FRAMES                         : 1083
NUMBER_OF_BYTES                          : 54180
_STATISTICS_WRITING_APP                  : mkvmerge v7.0.0 ('Where We Going') 32bit built on Jun  9 2014 15:08:34
_STATISTICS_WRITING_DATE_UTC             : 2014-07-19 15:57:34
_STATISTICS_TAGS                         : BPS DURATION NUMBER_OF_FRAMES NUMBER_OF_BYTES
Video
ID                                       : 1
Format                                   : AVC
Format/Info                              : Advanced Video Codec
Format profile                           : High@L4.1
Format settings, CABAC                   : Yes
Format settings, ReFrames                : 10 frames
Codec ID                                 : V_MPEG4/ISO/AVC
Duration                                 : 1h 35mn
Bit rate                                 : 1 395 Kbps
Width                                    : 1 032 pixels
Height                                   : 430 pixels
Display aspect ratio                     : 2.40:1
Frame rate mode                          : Constant
Frame rate                               : 24.000 fps
Color space                              : YUV
Chroma subsampling                       : 4:2:0
Bit depth                                : 8 bits
Scan type                                : Progressive
Bits/(Pixel*Frame)                       : 0.131
Stream size                              : 927 MiB (63%)
Writing library                          : x264 core 142 r2431 ac76440
Encoding settings                        : cabac=1 / ref=10 / deblock=1:-2:-2 / analyse=0x3:0x133 / me=umh / subme=10 / psy=1 / psy_rd=1.00:0.00 / mixed_ref=1 / me_range=48 / chroma_me=1 / trellis=2 / 8x8dct=1 / cqm=0 / deadzone=21,11 / fast_pskip=0 / chroma_qp_offset=-2 / threads=3 / lookahead_threads=1 / sliced_threads=0 / nr=0 / decimate=1 / interlaced=0 / bluray_compat=0 / constrained_intra=0 / bframes=13 / b_pyramid=2 / b_adapt=2 / b_bias=0 / direct=3 / weightb=1 / open_gop=0 / weightp=2 / keyint=240 / keyint_min=24 / scenecut=40 / intra_refresh=0 / rc_lookahead=40 / rc=2pass / mbtree=0 / bitrate=1395 / ratetol=1.0 / qcomp=0.60 / qpmin=0 / qpmax=69 / qpstep=4 / cplxblur=20.0 / qblur=0.5 / vbv_maxrate=50000 / vbv_bufsize=62500 / nal_hrd=none / filler=0 / ip_ratio=1.40 / pb_ratio=1.30 / aq=2:1.00
Language                                 : English
Default                                  : Yes
Forced                                   : No
DURATION                                 : 01:35:45.792000000
NUMBER_OF_FRAMES                         : 137899
NUMBER_OF_BYTES                          : 1000700990
_STATISTICS_WRITING_APP                  : mkvmerge v7.0.0 ('Where We Going') 32bit built on Jun  9 2014 15:08:34
_STATISTICS_WRITING_DATE_UTC             : 2014-07-19 15:57:34
_STATISTICS_TAGS                         : BPS DURATION NUMBER_OF_FRAMES NUMBER_OF_BYTES
Audio #1
ID                                       : 2
Format                                   : AC-3
Format/Info                              : Audio Coding 3
Mode extension                           : CM (complete main)
Format settings, Endianness              : Big
Codec ID                                 : A_AC3
Duration                                 : 1h 35mn
Bit rate mode                            : Constant
Bit rate                                 : 384 Kbps
Channel(s)                               : 6 channels
Channel positions                        : Front: L C R, Side: L R, LFE
Sampling rate                            : 48.0 KHz
Bit depth                                : 16 bits
Compression mode                         : Lossy
Stream size                              : 263 MiB (18%)
Title                                    : DUB
Language                                 : Russian
Default                                  : Yes
Forced                                   : No
Audio #2
ID                                       : 3
Format                                   : AC-3
Format/Info                              : Audio Coding 3
Mode extension                           : CM (complete main)
Format settings, Endianness              : Big
Codec ID                                 : A_AC3
Duration                                 : 1h 35mn
Bit rate mode                            : Constant
Bit rate                                 : 384 Kbps
Channel(s)                               : 6 channels
Channel positions                        : Front: L C R, Side: L R, LFE
Sampling rate                            : 48.0 KHz
Bit depth                                : 16 bits
Compression mode                         : Lossy
Stream size                              : 263 MiB (18%)
Title                                    : Original
Language                                 : English
Default                                  : No
Forced                                   : No
Text
ID                                       : 4
Format                                   : UTF-8
Codec ID                                 : S_TEXT/UTF8
Codec ID/Info                            : UTF-8 Plain Text
Language                                 : Russian
Default                                  : No
Forced                                   : No
Menu
00:00:00.000                             : en:Chapter 1
00:07:41.083                             : en:Chapter 2
00:14:39.750                             : en:Chapter 3
00:19:53.500                             : en:Chapter 4
00:24:31.458                             : en:Chapter 5
00:29:57.708                             : en:Chapter 6
00:35:07.458                             : en:Chapter 7
00:42:15.333                             : en:Chapter 8
00:48:41.500                             : en:Chapter 9
00:56:29.500                             : en:Chapter 10
01:03:04.250                             : en:Chapter 11
01:07:04.666                             : en:Chapter 12
01:13:43.750                             : en:Chapter 13
01:20:32.625                             : en:Chapter 14
01:26:01.625                             : en:Chapter 15
01:30:44.208                             : en:Chapter 16
Скриншоты
Скачать

Скачать торрент!

Как скачивать? · Что такое торрент? · Рейтинг и ограничения

Сайт не распространяет и не хранит электронные версии произведений, а лишь предоставляет доступ к создаваемому пользователями каталогу ссылок на торрент-файлы, которые содержат только списки хеш-сумм

[Профиль] [ЛС]
Показать сообщения:    
Ответить на тему

Текущее время: Сегодня 14:35

Часовой пояс: GMT + 4



Вы не можете начинать темы
Вы не можете отвечать на сообщения
Вы не можете редактировать свои сообщения
Вы не можете удалять свои сообщения
Вы не можете голосовать в опросах
Вы не можете прикреплять файлы к сообщениям
Вы не можете скачивать файлы