Спайс Уорлд / Spice World (Боб Спирс / Bob Spiers) [1997, Великобритания, семейный, комедия, музыкальный, приключения, HDTV 1080i] DVO + Original Eng

Ответить на тему
 
Автор Сообщение

user ®

Стаж: 7 лет 7 месяцев

Сообщений: 20008

Пост Пост: #1 от 21-Июл-2014 20:15

[Цитировать]

Спайс Уорлд / Spice World
Страна: Великобритания
Жанр: семейный, комедия, музыкальный, приключения
Год выпуска: 1997
Продолжительность: 01:32:42
Перевод: Профессиональный (двухголосый закадровый)
Оригинальная аудиодорожка: английский
Cубтитры: нет
Режиссер: Боб Спирс / Bob Spiers
В ролях: Мелани Браун, Эмма Бантон, Мелани Чисхолм, Джери Холливэлл, Виктория Бэкхэм, Кевин Аллен, Девон Андерсон, Майкл Бэрримор, Ричард Брирс, Саймон Чэндлер
Описание: Что сопровождает всемирно известную группу? Слухи и скандалы? - Да! Поклонники, репортеры и психи? - непременно! А еще опасности и приключения! Это были пять сумашедших дней перед первым концертом Spice Girls в Роял Холле. Слава Богу, в этом приключении никто не пострадал«They perform for royalty and entertain millions the world over. But now, they're making a movie» &
Тип релиза: HDTV 1080i MPEG2-TrollHD
Контейнер: MKV
Видео: MPEG Video 1920x1080i 16.6 Mbps 29.970 fps
Аудио #1: 48 kHz, AC3 Dolby Digital, 2/0 (L,R), ~192 kbps
Аудио #2: 48 kHz, AC3 Dolby Digital, 3/2 (L,C,R,l,r) + LFE ch, ~384.00 kbps avg
Скачать: Сэмпл
MediaInfo
General
Unique ID                                : 214645692932659340652690867170075357960 (0xA17B41BA0EF23C968EA36A9AF5823308)
Complete name                            : E:\Spice World 1997 1080i HDTV-Serval.mkv
Format                                   : Matroska
Format version                           : Version 4 / Version 2
File size                                : 11.4 GiB
Duration                                 : 1h 32mn
Overall bit rate mode                    : Variable
Overall bit rate                         : 17.6 Mbps
Encoded date                             : UTC 2014-07-21 11:01:34
Writing application                      : mkvmerge v6.4.1 ('Omega Point') built on Sep 16 2013 22:05:10
Writing library                          : libebml v1.3.0 + libmatroska v1.4.1
Video
ID                                       : 1
Format                                   : MPEG Video
Format version                           : Version 2
Format profile                           : Main@High
Format settings, BVOP                    : No
Format settings, Matrix                  : Custom
Codec ID                                 : V_MPEG2
Codec ID/Info                            : MPEG 1 or 2 Video
Duration                                 : 1h 32mn
Bit rate mode                            : Variable
Bit rate                                 : 16.6 Mbps
Maximum bit rate                         : 65.0 Mbps
Width                                    : 1 920 pixels
Height                                   : 1 080 pixels
Display aspect ratio                     : 16:9
Frame rate mode                          : Constant
Frame rate                               : 29.970 fps
Color space                              : YUV
Chroma subsampling                       : 4:2:0
Bit depth                                : 8 bits
Scan type                                : Interlaced
Scan order                               : Top Field First
Compression mode                         : Lossy
Bits/(Pixel*Frame)                       : 0.268
Time code of first frame                 : 00:00:00;00
Time code source                         : Group of pictures header
Stream size                              : 10.8 GiB (95%)
Language                                 : English
Default                                  : Yes
Forced                                   : No
Audio #1
ID                                       : 2
Format                                   : AC-3
Format/Info                              : Audio Coding 3
Mode extension                           : CM (complete main)
Format settings, Endianness              : Big
Codec ID                                 : A_AC3
Duration                                 : 1h 32mn
Bit rate mode                            : Constant
Bit rate                                 : 192 Kbps
Channel(s)                               : 2 channels
Channel positions                        : Front: L R
Sampling rate                            : 48.0 KHz
Bit depth                                : 16 bits
Compression mode                         : Lossy
Stream size                              : 127 MiB (1%)
Title                                    : Двухголосый закадровый
Language                                 : Russian
Default                                  : Yes
Forced                                   : No
Audio #2
ID                                       : 3
Format                                   : AC-3
Format/Info                              : Audio Coding 3
Mode extension                           : CM (complete main)
Format settings, Endianness              : Big
Codec ID                                 : A_AC3
Duration                                 : 1h 32mn
Bit rate mode                            : Constant
Bit rate                                 : 384 Kbps
Channel(s)                               : 6 channels
Channel positions                        : Front: L C R, Side: L R, LFE
Sampling rate                            : 48.0 KHz
Bit depth                                : 16 bits
Compression mode                         : Lossy
Stream size                              : 255 MiB (2%)
Language                                 : English
Default                                  : No
Forced                                   : No
Скриншоты
Скачать

Скачать торрент!

Как скачивать? · Что такое торрент? · Рейтинг и ограничения

Сайт не распространяет и не хранит электронные версии произведений, а лишь предоставляет доступ к создаваемому пользователями каталогу ссылок на торрент-файлы, которые содержат только списки хеш-сумм

[Профиль] [ЛС]
Показать сообщения:    
Ответить на тему

Текущее время: Сегодня 21:58

Часовой пояс: GMT + 4



Вы не можете начинать темы
Вы не можете отвечать на сообщения
Вы не можете редактировать свои сообщения
Вы не можете удалять свои сообщения
Вы не можете голосовать в опросах
Вы не можете прикреплять файлы к сообщениям
Вы не можете скачивать файлы