Романтическая комедия / Romantic Comedy (Артур Хиллер / Arthur Hiller) [1983, США, комедия, HDTV 1080i] MVO (НТВ+) + Sub Eng + Original Eng

Ответить на тему
 
Автор Сообщение

user ®

Стаж: 7 лет 7 месяцев

Сообщений: 20008

Пост Пост: #1 от 21-Июл-2014 05:15

[Цитировать]

Романтическая комедия / Romantic Comedy
Страна: США
Студия: Mirisch Corporation, The, TAFT Entertainment Pictures, United Artists
Жанр: комедия
Год выпуска: 1983
Продолжительность: 01:37:34
Перевод: Профессиональный (многоголосый закадровый) НТВ+
Cубтитры: английские
Оригинальная аудиодорожка: английский
Режиссер: Артур Хиллер / Arthur Hiller
В ролях: Дадли Мур / Dudley Moore, Мэри Стинберджен / Mary Steenburgen, Фрэнсис Стернхэйген / Frances Sternhagen, Джэнет Эйлбер, Робин Дагласс / Robyn Douglass
Описание: Женатый драматург влюбляется в одинокую девушку, начинает за ней ухаживать. Когда он становится свободным, она... выходит замуж за другого. (Иванов М.)
II Сэмпл II IMDB II
Тип релиза: HDTV 1080i
Контейнер: MKV
Видео: AVC / 1920x1080 / 16:9 / 25.0fps / Bit rate 6250Kbps
Аудио 1: MP2 / 48.0 KHz / 2ch. / 192kbps / rus / mvo
Аудио 2: AC3 / 48.0 KHz / 2ch. / 192kbps / eng
Формат субтитров: softsub (SRT)
MediaInfo
Общее
Уникальный идентификатор : 231569755959735087057770086822480077842 (0xAE36B674EE68CCE5A7EAEF1090C66412)
Полное имя : E:\torrent\Romantic.Comedy.1983.hdtv.1080i.mkv
Формат : Matroska
Версия формата : Version 4 / Version 2
Размер файла : 4,61 Гбайт
Продолжительность : 1 ч. 37 м.
Общий поток : 6769 Кбит/сек
Дата кодирования : UTC 2014-07-19 09:19:12
Программа кодирования : mkvmerge v7.0.0 ('Where We Going') 64bit built on Jun 9 2014 15:16:27
Библиотека кодирования : libebml v1.3.0 + libmatroska v1.4.1
DURATION : 01:33:15.840000000
NUMBER_OF_FRAMES : 1302
NUMBER_OF_BYTES : 49272
_STATISTICS_WRITING_APP : mkvmerge v7.0.0 ('Where We Going') 64bit built on Jun 9 2014 15:16:27
_STATISTICS_WRITING_DATE_UTC : 2014-07-19 09:19:12
_STATISTICS_TAGS : BPS DURATION NUMBER_OF_FRAMES NUMBER_OF_BYTES
Видео
Идентификатор : 1
Формат : AVC
Формат/Информация : Advanced Video Codec
Профиль формата : High@L4.0
Параметр CABAC формата : Да
Параметр ReFrames формата : 3 кадра
Параметр GOP формата : M=4, N=32
Идентификатор кодека : V_MPEG4/ISO/AVC
Продолжительность : 1 ч. 37 м.
Битрейт : 6250 Кбит/сек
Ширина : 1920 пикселей
Высота : 1080 пикселей
Соотношение сторон : 16:9
Режим частоты кадров : Постоянный
Частота кадров : 25,000 кадров/сек
Стандарт вещания : Component
Цветовое пространство : YUV
Субдискретизация насыщенности : 4:2:0
Битовая глубина : 8 бит
Тип развёртки : Чересстрочная
Порядок развёртки : Верхнее поле первое
Бит/(Пиксели*Кадры) : 0.121
Размер потока : 4,26 Гбайт (92%)
Заголовок : Romantic.Comedy.1983.hdtv.1080i
Default : Да
Forced : Нет
Основные цвета : BT.709
Характеристики трансфера : BT.709
Коэффициенты матрицы : BT.709
Аудио #1
Идентификатор : 2
Формат : MPEG Audio
Версия формата : Version 1
Профиль формата : Layer 2
Идентификатор кодека : A_MPEG/L2
Идентификатор кодека/Подсказка : MP2
Продолжительность : 1 ч. 37 м.
Вид битрейта : Постоянный
Битрейт : 192 Кбит/сек
Каналы : 2 канала
Частота : 48,0 КГц
Метод сжатия : С потерями
Размер потока : 134 Мбайт (3%)
Заголовок : MP2 / 2ch / 48.0 KHz / 192Kbps / rus / MVO / NTV+
Язык : Russian
Default : Да
Forced : Нет
Аудио #2
Идентификатор : 3
Формат : AC-3
Формат/Информация : Audio Coding 3
Расширение режима : CM (complete main)
Параметр Endianness формата : Big
Идентификатор кодека : A_AC3
Продолжительность : 1 ч. 37 м.
Вид битрейта : Постоянный
Битрейт : 192 Кбит/сек
Каналы : 2 канала
Расположение каналов : Front: L R
Частота : 48,0 КГц
Битовая глубина : 16 бит
Метод сжатия : С потерями
Размер потока : 134 Мбайт (3%)
Заголовок : AC3 / 2ch / 48.0 KHz / 192Kbps / original eng
Язык : English
Default : Нет
Forced : Нет
Текст
Идентификатор : 4
Формат : UTF-8
Идентификатор кодека : S_TEXT/UTF8
Идентификатор кодека/Информация : UTF-8 Plain Text
Заголовок : subtitle eng
Язык : English
Default : Нет
Forced : Нет
Скриншот с названием фильма Скриншоты Сравнение с DVD
Скачать

Скачать торрент!

Как скачивать? · Что такое торрент? · Рейтинг и ограничения

Сайт не распространяет и не хранит электронные версии произведений, а лишь предоставляет доступ к создаваемому пользователями каталогу ссылок на торрент-файлы, которые содержат только списки хеш-сумм

[Профиль] [ЛС]
Показать сообщения:    
Ответить на тему

Текущее время: Сегодня 16:34

Часовой пояс: GMT + 4



Вы не можете начинать темы
Вы не можете отвечать на сообщения
Вы не можете редактировать свои сообщения
Вы не можете удалять свои сообщения
Вы не можете голосовать в опросах
Вы не можете прикреплять файлы к сообщениям
Вы не можете скачивать файлы