Большой босс / The Big Boss / Tang shan da xiong (Вэй Ло / Wei Lo, Чиа-хсианг Ву / Chia-Hsiang Wu) [1971 г., Гонконг, боевик, триллер, драма, криминал, BDRip] MVO (Superbit) + Original (Chi) + Subs (Rus, Eng, Chi)

Ответить на тему
 
Автор Сообщение

user ®

Стаж: 13 лет

Сообщений: 15071

Пост Пост: #1 от 21-Июл-2014 02:05

[Цитировать]

--Большой босс / Tang shan da xiong«Его тело - смертельное оружие»-- Страна: Гонконг
Жанр: боевик, триллер, драма, криминал
Год выхода: 1971
Продолжительность: 01:39:40
Перевод: профессиональный (многоголосый, закадровый) (Superbit)
Субтитры: русские, английские (2 вида), китайские (2 вида)
Оригинальная аудиодорожка: китайская
Режиссер: Вэй Ло, Чиа-хсианг Ву
В ролях: Брюс Ли, Мария Йи, Джеймс Тьен, Мэрлин Баутиста, Инь-Чиэ Хань, Тони Лю, Куин Ли, Нора Миао, Сань Чинь, Чи Чен
О фильме: Скромный паренёк из Гонконга Чен Чао-Ан приезжает в Таиланд к своим родственникам, чтобы те помогли ему с работой. Он устраивается на фабрику по производству льда.

Релиз от -
Автор: Gellard
Сэмпл: скачать
Качество: BDRip (источник: HDCLUB / Blu-Ray Remux / 1080p)
Формат: AVI
Видео: 720x304 (2.37:1), 23.976 fps, XviD build 65 ~2231 kbps avg, 0.42 bit/pixel
Аудио #1: (MVO.SUPERBIT) 48 kHz, AC3 Dolby Digital, 3/2 (L,C,R,l,r) + LFE ch, 448.00 kbps avg
Аудио #2: (CHI) 48 kHz, AC3 Dolby Digital, 3/2 (L,C,R,l,r) + LFE ch, 448.00 kbps avg
Формат субтитров: softsub (SRT)-
-
Скриншоты MediaInfo
General
Complete name                            : Bolshoj.boss.1971.DUAL.BDRip.XviD.AC3.-HQCLUB.avi
Format                                   : AVI
Format/Info                              : Audio Video Interleave
Format profile                           : OpenDML
File size                                : 2.18 GiB
Duration                                 : 1h 39mn
Overall bit rate                         : 3 134 Kbps
Movie name                               : Большой босс / The Big Boss / Tang shan da xiong (1971) BDRip
Director                                 : Gellard
Genre                                    : боевик, триллер, драма
Writing application                      : VirtualDubMod 1.5.10.2 (build 2542/release)
Copyright                                : HQCLUB
Comment                                  : 18.07.2014
Video
ID                                       : 0
Format                                   : MPEG-4 Visual
Format profile                           : Advanced Simple@L5
Format settings, BVOP                    : 1
Format settings, QPel                    : No
Format settings, GMC                     : No warppoints
Format settings, Matrix                  : Custom
Codec ID                                 : XVID
Codec ID/Hint                            : XviD
Duration                                 : 1h 39mn
Bit rate                                 : 2 220 Kbps
Width                                    : 720 pixels
Height                                   : 304 pixels
Display aspect ratio                     : 2.35:1
Frame rate                               : 23.976 fps
Color space                              : YUV
Chroma subsampling                       : 4:2:0
Bit depth                                : 8 bits
Scan type                                : Progressive
Compression mode                         : Lossy
Bits/(Pixel*Frame)                       : 0.423
Stream size                              : 1.55 GiB (71%)
Writing library                          : XviD 65
Audio #1
ID                                       : 1
Format                                   : AC-3
Format/Info                              : Audio Coding 3
Mode extension                           : CM (complete main)
Format settings, Endianness              : Big
Codec ID                                 : 2000
Duration                                 : 1h 39mn
Bit rate mode                            : Constant
Bit rate                                 : 448 Kbps
Channel count                            : 6 channels
Channel positions                        : Front: L C R, Side: L R, LFE
Sampling rate                            : 48.0 KHz
Bit depth                                : 16 bits
Compression mode                         : Lossy
Stream size                              : 319 MiB (14%)
Alignment                                : Split accross interleaves
Interleave, duration                     : 42 ms (1.00 video frame)
Interleave, preload duration             : 500 ms
Audio #2
ID                                       : 2
Format                                   : AC-3
Format/Info                              : Audio Coding 3
Mode extension                           : CM (complete main)
Format settings, Endianness              : Big
Codec ID                                 : 2000
Duration                                 : 1h 39mn
Bit rate mode                            : Constant
Bit rate                                 : 448 Kbps
Channel count                            : 6 channels
Channel positions                        : Front: L C R, Side: L R, LFE
Sampling rate                            : 48.0 KHz
Bit depth                                : 16 bits
Compression mode                         : Lossy
Stream size                              : 319 MiB (14%)
Alignment                                : Split accross interleaves
Interleave, duration                     : 42 ms (1.00 video frame)
Interleave, preload duration             : 500 ms
Скачать

Скачать торрент! Большой босс / The Big Boss / Tang shan da xiong (Вэй Ло / Wei Lo, Чиа-хсианг Ву / Chia-Hsiang Wu) [1971 г., Гонконг, боевик, триллер, драма, криминал, BDRip] MVO (Superbit) + Original (Chi) + Subs (Rus, Eng, Chi)

Как скачивать? · Что такое торрент? · Рейтинг и ограничения

Сайт не распространяет и не хранит электронные версии произведений, а лишь предоставляет доступ к создаваемому пользователями каталогу ссылок на торрент-файлы, которые содержат только списки хеш-сумм

[Профиль] [ЛС]
Показать сообщения:    
Ответить на тему

Текущее время: Сегодня 20:43

Часовой пояс: GMT + 4



Вы не можете начинать темы
Вы не можете отвечать на сообщения
Вы не можете редактировать свои сообщения
Вы не можете удалять свои сообщения
Вы не можете голосовать в опросах
Вы не можете прикреплять файлы к сообщениям
Вы не можете скачивать файлы