Невинная любовь Кармен / Carmen\'s Pure Love / Karumen junjo su (Кэйскэ Киносьта / Keisuke Kinoshita) [1952, Япония, комедия сатира, DVDRip] (Rus) (Eng) + Sub

Ответить на тему
 
Автор Сообщение

user ®

Стаж: 13 лет

Сообщений: 15071

Пост Пост: #1 от 21-Июл-2014 02:05

[Цитировать]

Невинная любовь Кармен / Carmen's Pure Love / Karumen junjo su / カルメン純情す
Страна: Япония
Жанр: комедия сатира
Год выпуска: 1952
Продолжительность: 01:38:43
Перевод 1: Субтитры русские - дед_сто_лет©
Перевод 2: Субтитры английские
Оригинальная аудиодорожка: японский
Режиссер: Кэйскэ Киносьта / Keisuke Kinoshita
В ролях: Хидэко ТАКАМИНЭ, Масао Вакахара, Тиаки Авасима, Тосико Кобаяси, Эйко Миёси, Тиэко Хигасияма, Сатико Мурасэ, Такеси Сакамото, Синъити Химори, Тасио Сато
Описание: Продолжение истории простушки Кармен, которая посвятила себя искусству и поэтому выступает в стриптиз-шоу. На этот раз действие происходит не в деревне, а в Токио, искареженном западной культурой. Здесь все перевернулось с ног на голову, даже горизонт теперь движется, как хочет. Выборы, политики, война, поп-арт, атомная бомба и коммунисты. Кармен сочувствует своей подруге Акэми, жизнь которой разрушила любовь. Она учит её, как надо жить. Но сама Кармен не защищена от этой угрозы.©
Первый фильм про Кармен - Кармен возвращается на родину / Carmen Comes Home / Karumen kokyo ni kaeru - 1951
> > > > >
Качество видео: DVDRip
Формат видео: AVI
Видео: 640x480 (1.33:1), 25 fps, XviD build 50 ~1957 kbps avg, 0.25 bit/pixel
Аудио: 48 kHz, MPEG Layer 3, 2 ch, ~160.00 kbps avg
Формат субтитров: softsub (SRT)
Доп. информация о субтитрах: дед_сто_лет
Пример субтитров
658
00:42:27,400 --> 00:42:28,561
Мы ждем!
659
00:42:30,720 --> 00:42:31,926
Поторопись!
660
00:42:34,480 --> 00:42:35,925
Что ты делаешь?
661
00:42:36,760 --> 00:42:37,966
Ну же?
662
00:42:38,520 --> 00:42:41,444
Можно? Выходи.
663
00:42:42,080 --> 00:42:43,969
Я отрываю занавеску! Хорошо?
664
00:42:45,240 --> 00:42:46,162
Я открываю!
665
00:42:51,080 --> 00:42:52,411
Ты всё ещё в платье?
666
00:42:53,200 --> 00:42:55,009
Ты же пришла позировать.
667
00:42:55,120 --> 00:42:57,361
Нужно делать свою работу.
668
00:42:57,800 --> 00:42:59,848
Ты знала, что нужно
быть обнаженной.
669
00:43:00,280 --> 00:43:01,441
Простите.
670
00:43:01,560 --> 00:43:02,971
Живот болит?
671
00:43:04,080 --> 00:43:05,730
Не в этом дело.
672
00:43:06,400 --> 00:43:08,641
Я просто не могу.
673
00:43:09,280 --> 00:43:10,770
Почему?
674
00:43:12,720 --> 00:43:14,051
Я пойду домой.
675
00:43:19,280 --> 00:43:21,521
- Ты шутишь?
- Это розыгрыш!
676
00:43:21,640 --> 00:43:23,005
Я встал в такую рань!
677
00:43:23,120 --> 00:43:24,610
Может, пойдем ко мне?
678
00:43:24,720 --> 00:43:25,528
Идиот!
679
00:43:25,840 --> 00:43:27,046
Простите!
680
00:43:28,640 --> 00:43:29,880
Я пойду.
681
00:43:32,000 --> 00:43:33,650
Ты меня разыгрываешь?
682
00:43:33,760 --> 00:43:35,250
Нисколько.
683
00:43:36,480 --> 00:43:38,289
Для меня это слишком тяжело.
684
00:43:39,080 --> 00:43:40,286
Я ухожу.
685
00:44:08,840 --> 00:44:11,571
У вас будет выставка.
686
00:44:13,000 --> 00:44:16,686
Я искренне надеюсь,
что вас ждет большой успех.
687
00:44:36,360 --> 00:44:38,408
Хадзимэ-сан! Что ты с ней сделал?
MediaInfo
General
Complete name : C:\Torrents\[ASIA]\Karumen_junjo_su(1952)keisuke.Kinoshita\Karumen_junjo_su(1952)Keisuke.Kinoshita.avi
Format : AVI
Format/Info : Audio Video Interleave
File size : 1.46 GiB
Duration : 1h 38mn
Overall bit rate : 2 124 Kbps
Writing application : VirtualDubMod 1.5.4.1 (build 2178/release)
Writing library : VirtualDubMod build 2178/release
Video
ID : 0
Format : MPEG-4 Visual
Format profile : Advanced Simple@L5
Format settings, BVOP : 1
Format settings, QPel : No
Format settings, GMC : No warppoints
Format settings, Matrix : Custom
Codec ID : XVID
Codec ID/Hint : XviD
Duration : 1h 38mn
Bit rate : 1 957 Kbps
Width : 640 pixels
Height : 480 pixels
Display aspect ratio : 4:3
Frame rate : 25.000 fps
Color space : YUV
Chroma subsampling : 4:2:0
Bit depth : 8 bits
Scan type : Progressive
Compression mode : Lossy
Bits/(Pixel*Frame) : 0.255
Stream size : 1.35 GiB (92%)
Writing library : XviD 1.2.1 (UTC 2008-12-04)
Audio
ID : 1
Format : MPEG Audio
Format version : Version 1
Format profile : Layer 3
Mode : Joint stereo
Mode extension : MS Stereo
Codec ID : 55
Codec ID/Hint : MP3
Duration : 1h 38mn
Bit rate mode : Constant
Bit rate : 160 Kbps
Channel(s) : 2 channels
Sampling rate : 48.0 KHz
Compression mode : Lossy
Stream size : 113 MiB (8%)
Alignment : Aligned on interleaves
Interleave, duration : 80 ms (2.00 video frames)
Interleave, preload duration : 504 ms
Writing library : LAME3.98r
Encoding settings : -m j -V 4 -q 2 -lowpass 17.5 -b 160
Language : English
Скриншот c названием фильма Скриншоты
Скачать

Скачать торрент! Невинная любовь Кармен / Carmen\'s Pure Love / Karumen junjo su (Кэйскэ Киносьта / Keisuke Kinoshita) [1952, Япония, комедия сатира, DVDRip] (Rus) (Eng) + Sub

Как скачивать? · Что такое торрент? · Рейтинг и ограничения

Сайт не распространяет и не хранит электронные версии произведений, а лишь предоставляет доступ к создаваемому пользователями каталогу ссылок на торрент-файлы, которые содержат только списки хеш-сумм

[Профиль] [ЛС]
Показать сообщения:    
Ответить на тему

Текущее время: Сегодня 17:49

Часовой пояс: GMT + 4



Вы не можете начинать темы
Вы не можете отвечать на сообщения
Вы не можете редактировать свои сообщения
Вы не можете удалять свои сообщения
Вы не можете голосовать в опросах
Вы не можете прикреплять файлы к сообщениям
Вы не можете скачивать файлы