Пленники солнца / Prisoners of the Sun (Роджер Кристиан / Roger Christian) [2013, США, Германия, ужасы, боевик, детектив, приключения, HDTV 1080p] MVO

Ответить на тему
 
Автор Сообщение

user ®

Стаж: 7 лет 7 месяцев

Сообщений: 20008

Пост Пост: #1 от 21-Июл-2014 02:05

[Цитировать]

Пленники солнца / Prisoners of the Sun Страна: США, Германия
Жанр: ужасы, боевик, детектив, приключения
Год выпуска: 2013
Продолжительность: 01:24:10
Перевод: Профессиональный (многоголосый закадровый)
Cубтитры: нет
Режиссер: Роджер Кристиан / Roger Christian
В ролях: Джон Рис-Дэвис, Дэвид Чэрвет, Кармен Чаплин, Эмили Холмс, Ник Моран, Джосс Экленд, Майкл Хиггс, Гульшан Гровер, Мохамед Ахзам, Эди Ареллано
Описание: Международная экспедиция обнаруживает потерянный город в подземелье под пирамидой. Археологи должны помешать пробудившимся фараонам древнего Египта устроить апокалипсис.
Доп. информация: Запись со спутника Телеканал Кинопоказ HD-1
Ссылка на кинопоиск: http://www.kinopoisk.ru/film/261762/
Сэмпл:
http://sendfile.su/1003471
http://rusfolder.com/41260579
Тип релиза: HDTV 1080p
Контейнер: TS
Видео: AVC/H.264, PAL, 1920x1080 (16:9), 8302 Кбит/сек, 25.000 fps
Аудио: русский, Mp2, 48000 Hz, 192 Кбит/сек, 2 ch
MediaInfo
Видео
Идентификатор : 4096 (0x1000)
Идентификатор меню : 1 (0x1)
Формат : AVC
Формат/Информация : Advanced Video Codec
Профиль формата : Main@L4.1
Параметр CABAC формата : Да
Параметр ReFrames формата : 2 кадра
Идентификатор кодека : 27
Продолжительность : 1 ч. 24 м.
Битрейт : 8302 Кбит/сек
Ширина : 1920 пикселей
Высота : 1080 пикселей
Соотношение сторон : 16:9
Частота кадров : 25,000 кадров/сек
Цветовое пространство : YUV
Субдискретизация насыщенности : 4:2:0
Битовая глубина : 8 бит
Тип развёртки : Прогрессивная
Бит/(Пиксели*Кадры) : 0.160
Размер потока : 4,88 Гбайт (93%)
Аудио
Идентификатор : 4608 (0x1200)
Идентификатор меню : 1 (0x1)
Формат : MPEG Audio
Версия формата : Version 1
Профиль формата : Layer 2
Идентификатор кодека : 4
Продолжительность : 1 ч. 24 м.
Вид битрейта : Постоянный
Битрейт : 192 Кбит/сек
Каналы : 2 канала
Частота : 48,0 КГц
Метод сжатия : С потерями
Размер потока : 116 Мбайт (2%)
Скриншоты c названием фильма Скриншоты
Скачать

Скачать торрент!

Как скачивать? · Что такое торрент? · Рейтинг и ограничения

Сайт не распространяет и не хранит электронные версии произведений, а лишь предоставляет доступ к создаваемому пользователями каталогу ссылок на торрент-файлы, которые содержат только списки хеш-сумм

[Профиль] [ЛС]
Показать сообщения:    
Ответить на тему

Текущее время: Сегодня 13:40

Часовой пояс: GMT + 4



Вы не можете начинать темы
Вы не можете отвечать на сообщения
Вы не можете редактировать свои сообщения
Вы не можете удалять свои сообщения
Вы не можете голосовать в опросах
Вы не можете прикреплять файлы к сообщениям
Вы не можете скачивать файлы