Джек Стронг / Jack Strong (Владислав Пасиковский / Wladyslaw Pasikowski) [2014, Польша, боевик, драма, криминал, детектив, биография, HDRip] VO (Andi)

Ответить на тему
 
Автор Сообщение

user ®

Стаж: 7 лет 7 месяцев

Сообщений: 20008

Пост Пост: #1 от 20-Июл-2014 02:35

[Цитировать]

Джек Стронг / Jack Strong
Страна: Польша
Жанр: боевик, драма, криминал, детектив, биография
Год выпуска: 2014
Продолжительность: 02:07:44
Перевод: Одноголосый закадровый Аndi
Cубтитры: нет
Оригинальная аудиодорожка: нет
Режиссер: Владислав Пасиковский / Wladyslaw Pasikowski
В ролях: Марчин Дорочиньский, Майя Осташевска, Патрик Уилсон, Дмитрий Биллов, Дагмара Доминчик, Олег Масленников, Кшиштоф Печиньский, Мирослав Бака, Збигнев Замаховский, Кшиштоф Глёбиш
Описание: 1968 год. Майор Рышард Куклинский готовит план военных учений стран-участниц Организации Варшавского договора. Он прекрасно понимает, что Советский Союз рассматривает возможность массированной атаки на Западную Европу и страны НАТО, которые, не имея достаточного количества обычных вооружений, будут вынуждены контратаковать с помощью ядерных ударов по его родной Польше, через которую и будут проходить силы первого и второго броска.
Доп. информация:

Сэмпл: http://multi-up.com/987383
Качество видео: HDRip
Формат видео: AVI
Видео: 720x304 (2.37:1), 24 fps, XviD build 50 ~1330 kbps avg, 0.25 bit/pixel
Аудио: 48 kHz, AC3 Dolby Digital, 2/0 (L,R) ch, ~192 kbps
MediaInfo
General
Complete name : C:\Users\Вика\Desktop\Jack.Strong.2014.HDRip.avi
Format : AVI
Format/Info : Audio Video Interleave
File size : 1.37 GiB
Duration : 2h 7mn
Overall bit rate : 1 532 Kbps
Writing application : VirtualDubMod 1.5.10.2 (build 2540/release)
Writing library : VirtualDubMod build 2540/release
Video
ID : 0
Format : MPEG-4 Visual
Format profile : Advanced Simple@L5
Format settings, BVOP : Yes
Format settings, QPel : No
Format settings, GMC : No warppoints
Format settings, Matrix : Default (H.263)
Codec ID : XVID
Codec ID/Hint : XviD
Duration : 2h 7mn
Bit rate : 1 331 Kbps
Width : 720 pixels
Height : 304 pixels
Display aspect ratio : 2.35:1
Frame rate : 24.000 fps
Color space : YUV
Chroma subsampling : 4:2:0
Bit depth : 8 bits
Scan type : Progressive
Compression mode : Lossy
Bits/(Pixel*Frame) : 0.253
Stream size : 1.19 GiB (87%)
Writing library : XviD 1.2.1 (UTC 2008-12-04)
Audio
ID : 1
Format : AC-3
Format/Info : Audio Coding 3
Mode extension : CM (complete main)
Format settings, Endianness : Big
Codec ID : 2000
Duration : 2h 7mn
Bit rate mode : Constant
Bit rate : 192 Kbps
Channel count : 2 channels
Channel positions : Front: L R
Sampling rate : 48.0 KHz
Bit depth : 16 bits
Compression mode : Lossy
Stream size : 175 MiB (13%)
Alignment : Split accross interleaves
Interleave, duration : 42 ms (1.00 video frame)
Interleave, preload duration : 500 ms
Скриншоты
Скачать

Скачать торрент!

Как скачивать? · Что такое торрент? · Рейтинг и ограничения

Сайт не распространяет и не хранит электронные версии произведений, а лишь предоставляет доступ к создаваемому пользователями каталогу ссылок на торрент-файлы, которые содержат только списки хеш-сумм

[Профиль] [ЛС]
Показать сообщения:    
Ответить на тему

Текущее время: Сегодня 08:02

Часовой пояс: GMT + 4



Вы не можете начинать темы
Вы не можете отвечать на сообщения
Вы не можете редактировать свои сообщения
Вы не можете удалять свои сообщения
Вы не можете голосовать в опросах
Вы не можете прикреплять файлы к сообщениям
Вы не можете скачивать файлы