С Новым Йорком! / Szczęśliwego Nowego Jorku (Януш Заорский / Janusz Zaorski) [1997, Польша, драма, комедия, HDTVRip 720p] VO (pandoctor) + Sub Rus + Original Pol

Ответить на тему
 
Автор Сообщение

user ®

Стаж: 7 лет 7 месяцев

Сообщений: 20008

Пост Пост: #1 от 19-Июл-2014 23:25

[Цитировать]

С Новым Йорком! / Szczęśliwego Nowego Jorku
Страна: Польша
Жанр: драма, комедия
Год выпуска: 1997
Продолжительность: 01:34:58
Перевод: Одноголосый закадровый pandoctor
Cубтитры: русские
Оригинальная аудиодорожка: польский
Режиссер: Януш Заорский / Janusz Zaorski
В ролях: Богуслав Линда, Збигнев Замаховский, Януш Гайос, Катажина Фигура, Цезары Пазура, Рафал Ольбрыхский, Данута Стэнка, Лилиана Оковиты-Броссе, Евгений Привезенцев, Тара Леоне, Катажина Шидловска, Дорота Хотецка, Дорота Добровольска, Славомир Пацек, Зыгмунт Хобот
Описание: В маленькой квартирке на Гринпойнте (Нью-Йорк) живут несколько польских эмигрантов: многодетный рабочий скотобойни Игнацы, предприниматель Асбест, музыкант Яцек «Панк», бывший преподаватель политэкономии социализма Профессор. К ним иногда заходит сестра Асбеста – красотка Тереза, чтобы сделать уборку к квартире. Всех их объединяет одно: желание добиться успеха в США и извечные неудачи на этом непростом пути. Игнацы, Панк и Профессор тоскуют по родине, Тереза мечтает выйти замуж за миллионера (пусть даже и инвалида), а бывший варшавский бандит Асбест планирует во что бы то ни стало остаться в Америке. Панк приводит старшего брата Серфера, юриста, который ради того, чтобы разбогатеть, готов пойти на конфликт с преступным миром Нью-Йорка.
Сэмпл: http://multi-up.com/986376


Тип релиза: HDTVRip 720p (thnx DDR)
Контейнер: MKV
Видео: H.264/AVC, 1280x716, 16:9, 25.00fps, 5142Kbps
Аудио: Русский, DD 5.1, 448Kbps, 48 kHz
Аудио 2: Польский, DTS 5.1, 755Kbps, 48 kHz
MediaInfo
Complete name : Szczesliwego.Nowego.Jorku.1997.720p.HDTV.x264.rus.pol.mkv
Format : Matroska
Format version : Version 4 / Version 2
File size : 4.30 GiB
Duration : 1h 34mn
Overall bit rate : 6 477 Kbps
Movie name : Szczesliwego Nowego Jorku (1997) by DDR
Encoded date : UTC 2014-07-14 19:52:52
Writing application : mkvmerge v7.0.0 ('Where We Going') 32bit built on Jun 9 2014 15:08:34
Writing library : libebml v1.3.0 + libmatroska v1.4.1
_STATISTICS_WRITING_APP : mkvmerge v7.0.0 ('Where We Going') 32bit built on Jun 9 2014 15:08:34
_STATISTICS_WRITING_DATE_UTC : 2014-07-14 19:52:52
_STATISTICS_TAGS : BPS DURATION NUMBER_OF_FRAMES NUMBER_OF_BYTES
DURATION : 01:34:55.584000000
NUMBER_OF_FRAMES : 177987
NUMBER_OF_BYTES : 318952704
Video
ID : 1
Format : AVC
Format/Info : Advanced Video Codec
Format profile : High@L4.1
Format settings, CABAC : Yes
Format settings, ReFrames : 9 frames
Codec ID : V_MPEG4/ISO/AVC
Duration : 1h 34mn
Bit rate : 5 146 Kbps
Nominal bit rate : 5 500 Kbps
Width : 1 280 pixels
Height : 716 pixels
Display aspect ratio : 16:9
Frame rate mode : Constant
Frame rate : 23.976 fps
Original frame rate : 25.000 fps
Color space : YUV
Chroma subsampling : 4:2:0
Bit depth : 8 bits
Scan type : Progressive
Bits/(Pixel*Frame) : 0.234
Stream size : 3.41 GiB (79%)
Title : Szczesliwego Nowego Jorku (1997)
Writing library : x264 core 129 r2245 bc13772
Encoding settings : cabac=1 / ref=9 / deblock=1:-3:-3 / analyse=0x3:0x133 / me=tesa / subme=10 / psy=1 / psy_rd=1.00:0.00 / mixed_ref=1 / me_range=24 / chroma_me=1 / trellis=2 / 8x8dct=1 / cqm=0 / deadzone=21,11 / fast_pskip=0 / chroma_qp_offset=-2 / threads=12 / lookahead_threads=2 / sliced_threads=0 / nr=0 / decimate=0 / interlaced=0 / bluray_compat=0 / constrained_intra=0 / bframes=8 / b_pyramid=2 / b_adapt=2 / b_bias=0 / direct=3 / weightb=1 / open_gop=0 / weightp=2 / keyint=250 / keyint_min=25 / scenecut=40 / intra_refresh=0 / rc=2pass / mbtree=0 / bitrate=5500 / ratetol=1.0 / qcomp=0.70 / qpmin=0 / qpmax=69 / qpstep=4 / cplxblur=20.0 / qblur=0.5 / ip_ratio=1.40 / pb_ratio=1.30 / aq=1:1.00
Language : Polish
Default : Yes
Forced : No
_STATISTICS_WRITING_APP : mkvmerge v7.0.0 ('Where We Going') 32bit built on Jun 9 2014 15:08:34
_STATISTICS_WRITING_DATE_UTC : 2014-07-14 19:52:52
_STATISTICS_TAGS : BPS DURATION NUMBER_OF_FRAMES NUMBER_OF_BYTES
DURATION : 01:34:56.650000000
NUMBER_OF_FRAMES : 136583
NUMBER_OF_BYTES : 3755425630
Audio #1
ID : 2
Format : AC-3
Format/Info : Audio Coding 3
Mode extension : CM (complete main)
Format settings, Endianness : Big
Codec ID : A_AC3
Duration : 1h 34mn
Bit rate mode : Constant
Bit rate : 448 Kbps
Channel(s) : 6 channels
Channel positions : Front: L C R, Side: L R, LFE
Sampling rate : 48.0 KHz
Bit depth : 16 bits
Compression mode : Lossy
Stream size : 304 MiB (7%)
Title : VO (pandoctor)
Language : Russian
Default : Yes
Forced : No
Audio #2
ID : 3
Format : DTS
Format/Info : Digital Theater Systems
Mode : 16
Format settings, Endianness : Big
Codec ID : A_DTS
Duration : 1h 34mn
Bit rate mode : Constant
Bit rate : 755 Kbps
Channel(s) : 6 channels
Channel positions : Front: L C R, Side: L R, LFE
Sampling rate : 48.0 KHz
Bit depth : 24 bits
Compression mode : Lossy
Stream size : 513 MiB (12%)
Language : Polish
Default : No
Forced : No
Text
ID : 4
Format : UTF-8
Codec ID : S_TEXT/UTF8
Codec ID/Info : UTF-8 Plain Text
Title : (pandoctor)
Language : Russian
Default : No
Forced : No
Menu
00:00:00.000 : en:Chapter 1
00:17:39.840 : en:Chapter 2
00:22:48.000 : en:Chapter 3
00:33:06.720 : en:Chapter 4
00:38:01.440 : en:Chapter 5
00:47:52.800 : en:Chapter 6
00:51:33.120 : en:Chapter 7
01:00:18.240 : en:Chapter 8
01:01:43.200 : en:Chapter 9
01:12:32.160 : en:Chapter 10
01:20:04.320 : en:Chapter 11
01:26:22.080 : en:Chapter 12
01:28:38.400 : en:Chapter 13
01:31:40.800 : en:Chapter 14
Скриншоты
Скачать

Скачать торрент!

Как скачивать? · Что такое торрент? · Рейтинг и ограничения

Сайт не распространяет и не хранит электронные версии произведений, а лишь предоставляет доступ к создаваемому пользователями каталогу ссылок на торрент-файлы, которые содержат только списки хеш-сумм

[Профиль] [ЛС]
Показать сообщения:    
Ответить на тему

Текущее время: Сегодня 18:05

Часовой пояс: GMT + 4



Вы не можете начинать темы
Вы не можете отвечать на сообщения
Вы не можете редактировать свои сообщения
Вы не можете удалять свои сообщения
Вы не можете голосовать в опросах
Вы не можете прикреплять файлы к сообщениям
Вы не можете скачивать файлы