Превосходство / Transcendence (Уолли Пфистер / Wally Pfister) [2014, Великобритания, США, Китай, Фантастика, боевик, триллер, драма, BDRip 720p] Dub + AVO (Немахов) + VO (Есарев) + Sub Rus, Eng + Original Eng

Ответить на тему
 
Автор Сообщение

user ®

Стаж: 7 лет 7 месяцев

Сообщений: 20008

Пост Пост: #1 от 19-Июл-2014 23:25

[Цитировать]

Превосходство / Transcendence Страна: Великобритания, США, Китай
Студия: Alcon Entertainment, DMG Entertainment, Straight Up Films, Syncopy
Жанр: Фантастика, боевик, триллер, драма
Год выпуска: 2014
Продолжительность: 01:59:16
Перевод 1: Любительский (дублированный) (не кинотеатральный) Студия Пиратского дубляжа
Перевод 2: Авторский (одноголосый закадровый) Немахов
Перевод 3: Одноголосый (закадровый) Есарев
Cубтитры: русские, английские
Оригинальная аудиодорожка: английский
Режиссер: Уолли Пфистер / Wally Pfister
В ролях: Джонни Депп, Ребекка Холл, Пол Беттани, Киллиан Мёрфи, Морган Фримен, Кейт Мара, Клифтон Коллинз мл., Коул Хаузер, Джош Стюарт, Кори Хардрикт
Описание: Ученый и компьютерный гений Уилл загружает свой мозг в суперкомпьютер. Он хочет создать машину, которая может думать как человек. Эвелин, его помощница, вскоре понимает: что-то идет не так. Уилл начинает говорить с ней уже не как живой человек, а как машина. Она подсоединяет его к сети интернет и микрофону — так машина может видеть и говорить. Уилл создает копию самого себя на каждом рабочем и домашнем компьютере. Теперь он владеет миром.

Тип релиза: BDRip 720p [CHD]
Контейнер: MKV
Видео: AVC, 1280x534, 4495 kbps, 23.976 fps
Аудио 1: Russian: 48 kHz, AC3, 3/2 (L,C,R,l,r) + LFE ch, ~384.00 kbps avg |СПД|
Аудио 2: Russian: 48 kHz, AC3, 3/2 (L,C,R,l,r) + LFE ch, ~640.00 kbps avg |Немахов|
Аудио 3: Russian: 48 kHz, AC3, 3/2 (L,C,R,l,r) + LFE ch, ~640.00 kbps avg |Есарев|
Аудио 4: English: 48 kHz, AC3, 3/2 (L,C,R,l,r) + LFE ch, ~640.00 kbps |Original|
Чаптеры: есть

Доп.информация
Перевод Юрия Немахова выполнен спонсорами ресурса e180 и участниками сервиса "Озвучивание": vadara, lesnikov, nekazz, shtift, meil, unbuba, tambov68, FM1981, IvAlien, Ex1l, mrgofa, hogopogo.
Перевод Дмитрия Есарева выполнен спонсорами mihaildns, dikii, Kruj0k, Прохожий, будулайроманов..
MediaInfo
General
Unique ID : 195311243188113843064323619943247802348 (0x92EF93C19E955CCEA5AEDB6CD2646FEC)
Complete name : D:\Transcendence.2014.720p.BluRay.DTS x264-Talian-.mkv
Format : Matroska
Format version : Version 2
File size : 5.66 GiB
Duration : 1h 59mn
Overall bit rate : 6 796 Kbps
Movie name : -Talian-
Encoded date : UTC 2014-07-16 16:01:19
Writing application : mkvmerge v5.7.0 ('The Whirlwind') built on Jul 8 2012 20:08:51
Writing library : libebml v1.2.3 + libmatroska v1.3.0
Video
ID : 1
Format : AVC
Format/Info : Advanced Video Codec
Format profile : High@L4.1
Format settings, CABAC : Yes
Format settings, ReFrames : 10 frames
Codec ID : V_MPEG4/ISO/AVC
Duration : 1h 59mn
Bit rate : 4 495 Kbps
Width : 1 280 pixels
Height : 534 pixels
Display aspect ratio : 2.40:1
Frame rate : 23.976 fps
Color space : YUV
Chroma subsampling : 4:2:0
Bit depth : 8 bits
Scan type : Progressive
Bits/(Pixel*Frame) : 0.274
Stream size : 3.63 GiB (64%)
Title : CHD
Writing library : x264 core 138 r2356 a1d3d17
Encoding settings : cabac=1 / ref=10 / deblock=1:-3:-3 / analyse=0x3:0x113 / me=umh / subme=10 / psy=1 / psy_rd=1.00:0.05 / mixed_ref=1 / me_range=32 / chroma_me=1 / trellis=2 / 8x8dct=1 / cqm=0 / deadzone=21,11 / fast_pskip=0 / chroma_qp_offset=-2 / threads=18 / lookahead_threads=1 / sliced_threads=0 / nr=0 / decimate=1 / interlaced=0 / bluray_compat=0 / constrained_intra=0 / bframes=5 / b_pyramid=2 / b_adapt=2 / b_bias=0 / direct=3 / weightb=1 / open_gop=0 / weightp=2 / keyint=250 / keyint_min=23 / scenecut=40 / intra_refresh=0 / rc=2pass / mbtree=0 / bitrate=4495 / ratetol=1.0 / qcomp=0.70 / qpmin=0 / qpmax=69 / qpstep=4 / cplxblur=20.0 / qblur=0.5 / ip_ratio=1.40 / pb_ratio=1.30 / aq=2:1.00
Language : English
Default : Yes
Forced : No
Audio #1
ID : 2
Format : AC-3
Format/Info : Audio Coding 3
Mode extension : CM (complete main)
Format settings, Endianness : Big
Codec ID : A_AC3
Duration : 1h 59mn
Bit rate mode : Constant
Bit rate : 384 Kbps
Channel(s) : 6 channels
Channel positions : Front: L C R, Side: L R, LFE
Sampling rate : 48.0 KHz
Bit depth : 16 bits
Compression mode : Lossy
Stream size : 328 MiB (6%)
Title : DUB-СПД
Language : Russian
Default : Yes
Forced : No
Audio #2
ID : 3
Format : AC-3
Format/Info : Audio Coding 3
Mode extension : CM (complete main)
Format settings, Endianness : Big
Codec ID : A_AC3
Duration : 1h 59mn
Bit rate mode : Constant
Bit rate : 640 Kbps
Channel(s) : 6 channels
Channel positions : Front: L C R, Side: L R, LFE
Sampling rate : 48.0 KHz
Bit depth : 16 bits
Compression mode : Lossy
Stream size : 546 MiB (9%)
Title : AVO-Немахов
Language : Russian
Default : No
Forced : No
Audio #3
ID : 4
Format : AC-3
Format/Info : Audio Coding 3
Mode extension : CM (complete main)
Format settings, Endianness : Big
Codec ID : A_AC3
Duration : 1h 59mn
Bit rate mode : Constant
Bit rate : 640 Kbps
Channel(s) : 6 channels
Channel positions : Front: L C R, Side: L R, LFE
Sampling rate : 48.0 KHz
Bit depth : 16 bits
Compression mode : Lossy
Stream size : 546 MiB (9%)
Title : VO-Есарев
Language : Russian
Default : No
Forced : No
Audio #4
ID : 5
Format : AC-3
Format/Info : Audio Coding 3
Mode extension : CM (complete main)
Format settings, Endianness : Big
Codec ID : A_AC3
Duration : 1h 59mn
Bit rate mode : Constant
Bit rate : 640 Kbps
Channel(s) : 6 channels
Channel positions : Front: L C R, Side: L R, LFE
Sampling rate : 48.0 KHz
Bit depth : 16 bits
Compression mode : Lossy
Stream size : 546 MiB (9%)
Title : Original
Language : English
Default : No
Forced : No
Text #1
ID : 6
Format : UTF-8
Codec ID : S_TEXT/UTF8
Codec ID/Info : UTF-8 Plain Text
Title : Sub
Language : Russian
Default : No
Forced : No
Text #2
ID : 7
Format : UTF-8
Codec ID : S_TEXT/UTF8
Codec ID/Info : UTF-8 Plain Text
Title : Sub
Language : English
Default : No
Forced : No
Menu
00:00:00.000 : en:00:00:00.000
00:11:20.847 : en:00:11:20.847
00:19:21.827 : en:00:19:21.827
00:31:00.776 : en:00:31:00.776
00:39:46.676 : en:00:39:46.676
00:50:20.434 : en:00:50:20.434
01:00:26.289 : en:01:00:26.289
01:11:07.972 : en:01:11:07.972
01:20:12.099 : en:01:20:12.099
01:29:36.037 : en:01:29:36.037
01:40:32.777 : en:01:40:32.777
01:50:53.772 : en:01:50:53.772
Скриншоты
Скачать

Скачать торрент!

Как скачивать? · Что такое торрент? · Рейтинг и ограничения

Сайт не распространяет и не хранит электронные версии произведений, а лишь предоставляет доступ к создаваемому пользователями каталогу ссылок на торрент-файлы, которые содержат только списки хеш-сумм

[Профиль] [ЛС]
Показать сообщения:    
Ответить на тему

Текущее время: Сегодня 20:00

Часовой пояс: GMT + 4



Вы не можете начинать темы
Вы не можете отвечать на сообщения
Вы не можете редактировать свои сообщения
Вы не можете удалять свои сообщения
Вы не можете голосовать в опросах
Вы не можете прикреплять файлы к сообщениям
Вы не можете скачивать файлы