72 метра (Владимир Хотиненко) [2004, катастрофа, драма, DVDRip] киноверсия

Ответить на тему
 
Автор Сообщение

user ®

Стаж: 7 лет 7 месяцев

Сообщений: 20008

Пост Пост: #1 от 18-Июл-2014 23:45

[Цитировать]

72 метра
Жанр: Катастрофа, Драма
Год выпуска: 2004
Продолжительность: 01:57:13
Режиссёр: Владимир Хотиненко
В ролях: Сергей Маковецкий, Сергей Гармаш, Владислав Галкин, Игорь Ливанов, Марат Башаров, Андрей Краско, Чулпан Хаматова, Дмитрий Ульянов, Станислав Никольский, Артем Михалков
Описание: Рассказ «72 метра», повествующий о гибели подводной лодки, был написан Александром Покровским задолго до того, как произошла трагедия «Курска». Это не пророчество и не совпадение, а, к сожалению, логика вещей. Самые суперсовременные самолеты падали и будут время от времени падать. Самые надежные корабли и подводные лодки тонули и, увы, еще будут тонуть. Но речь не об этом. Бывает так, что в критической ситуации люди, считавшиеся слабыми, становятся сильными, а те, кто казался твёрдыми, как скала, смертельно слабеют. Но все вместе они - герои. Эта история не о том, что надежда умирает последней, а о том, что она не умирает никогда…
Доп. информация:
Формат видео: AVI
Качество видео: DVDRip
Видео: XviD, 640x352, 25fps, 751kbps
Аудио: 48 kHz, MPEG Layer 3, 2 ch, ~128.00 kbps avg
MediaInfo
General
Complete name : 72.Metra.2004.O.DVDRip.745.KV.avi
Format : AVI
Format/Info : Audio Video Interleave
File size : 744 MiB
Duration : 1h 57mn
Overall bit rate : 888 Kbps
Writing application : VirtualDubMod 1.5.10.3 | www.virtualdub-fr.org || (build 2550/release)
Writing library : VirtualDubMod build 2550/release
Video
ID : 0
Format : MPEG-4 Visual
Format profile : Advanced Simple@L5
Format settings, BVOP : Yes
Format settings, QPel : No
Format settings, GMC : No warppoints
Format settings, Matrix : Custom
Codec ID : XVID
Codec ID/Hint : XviD
Duration : 1h 57mn
Bit rate : 751 Kbps
Width : 640 pixels
Height : 352 pixels
Display aspect ratio : 16:9
Frame rate : 25.000 fps
Color space : YUV
Chroma subsampling : 4:2:0
Bit depth : 8 bits
Scan type : Progressive
Bits/(Pixel*Frame) : 0.133
Stream size : 630 MiB (85%)
Writing library : XviD 63
Audio
ID : 1
Format : MPEG Audio
Format version : Version 1
Format profile : Layer 3
Codec ID : 55
Codec ID/Hint : MP3
Duration : 1h 56mn
Bit rate mode : Constant
Bit rate : 128 Kbps
Channel(s) : 2 channels
Sampling rate : 48.0 KHz
Stream size : 107 MiB (14%)
Alignment : Aligned on interleaves
Interleave, duration : 40 ms (1.01 video frame)
Interleave, preload duration : 504 ms
Writing library : LAME3.98r
Encoding settings : -m s -V 4 -q 2 -lowpass 17 -b 128
Скриншоты
Скачать

Скачать торрент!

Как скачивать? · Что такое торрент? · Рейтинг и ограничения

Сайт не распространяет и не хранит электронные версии произведений, а лишь предоставляет доступ к создаваемому пользователями каталогу ссылок на торрент-файлы, которые содержат только списки хеш-сумм

[Профиль] [ЛС]
Показать сообщения:    
Ответить на тему

Текущее время: Сегодня 16:35

Часовой пояс: GMT + 4



Вы не можете начинать темы
Вы не можете отвечать на сообщения
Вы не можете редактировать свои сообщения
Вы не можете удалять свои сообщения
Вы не можете голосовать в опросах
Вы не можете прикреплять файлы к сообщениям
Вы не можете скачивать файлы