Ной / Noah (Даррен Аронофски / Darren Aronofsky) [2014, США, драма, приключения, фэнтези, BDRip] Dub [iTunes]

Ответить на тему
 
Автор Сообщение

user ®

Стаж: 8 лет 6 месяцев

Сообщений: 20007

Пост Пост: #1 от 18-Июл-2014 14:15

[Цитировать]

НойNoah«Конец — это только начало»- Страна: США
Жанр: драма, приключения, фэнтези
Год выпуска: 2014
Продолжительность: 02:17:54-Перевод: Профессиональный (полное дублирование) [iTunes]
Субтитры: нет
Режиссер: Даррен Аронофски / Darren Aronofsky
В ролях: Рассел Кроу (Noah), Дженнифер Коннелли (Naameh), Рэй Уинстон (Tubal-cain), Энтони Хопкинс (Methuselah), Эмма Уотсон (Ila), Логан Лерман (Ham), Дуглас Бут (Shem), Ник Нолти (Samyaza, озвучка), Марк Марголис (Magog, озвучка), Кевин Дюран (Rameel), Лео МакХью Кэрролл (Japheth), Мартон Чокаш (Lamech)
Дублёры: Денис Беспалый (Noah), Рамиля Искандер (Naameh), Владимир Еремин (Tubal-cain), Рудольф Панков (Methuselah), Наталья Терешкова (Ila), Дмитрий Череватенко (Ham), Станислав Тикунов (Shem), Игорь Старосельцев (Samyaza), Лев Аксельрод (Japheth), Всеволод Кузнецов (Lamech), Вадим Медведев (Young Tubal-cain), Татьяна Ермилова (Na'el)-Описание: История отца, воина и спасителя Человечества и всего живого на Земле.-
MPAA: PG-13 - Детям до 13 лет просмотр не желателен-Качество: BDRip | BDRemux 1080p HDCLUB | sample
Контейнер: AVI
Видео: XviD, 720x384 (1.875), 1310 kbps, 23,976 fps, 0,198 bpp
Аудио: AC3 / 2.0 / 48 kHz / 192 kbps / 16 bit-Скриншоты Media Info
General
Complete name : E:\my_rip\Noah.2014.BDRip.Dub.by.Дядя_Лёша.avi
Format : AVI
Format/Info : Audio Video Interleave
File size : 1.46 GiB
Duration : 2h 17mn
Overall bit rate : 1 512 Kbps
Writing application : VirtualDubMod 1.5.10.3 | www.virtualdub-fr.org || (build 2550/release)
Writing library : VirtualDubMod build 2550/release
Video
ID : 0
Format : MPEG-4 Visual
Format profile : Advanced Simple@L5
Format settings, BVOP : 1
Format settings, QPel : No
Format settings, GMC : No warppoints
Format settings, Matrix : Custom
Codec ID : XVID
Codec ID/Hint : XviD
Duration : 2h 17mn
Bit rate : 1 311 Kbps
Width : 720 pixels
Height : 384 pixels
Display aspect ratio : 1.875
Frame rate : 23.976 fps
Color space : YUV
Chroma subsampling : 4:2:0
Bit depth : 8 bits
Scan type : Progressive
Compression mode : Lossy
Bits/(Pixel*Frame) : 0.198
Stream size : 1.26 GiB (87%)
Writing library : XviD 73
Audio
ID : 1
Format : AC-3
Format/Info : Audio Coding 3
Mode extension : CM (complete main)
Codec ID : 2000
Duration : 2h 17mn
Bit rate mode : Constant
Bit rate : 192 Kbps
Channel(s) : 2 channels
Channel positions : Front: L R
Sampling rate : 48.0 KHz
Bit depth : 16 bits
Compression mode : Lossy
Stream size : 189 MiB (13%)
Alignment : Split accross interleaves
Interleave, duration : 42 ms (1.00 video frame)
Interleave, preload duration : 500 ms
Сравнение
[url=http://***/forum/viewtopic.php?t=4783259]http://***/forum/viewtopic.php?t=4783259[/url]
http://screenshotcomparison.com/comparison/83982/picture:2
Скачать

Скачать торрент!

Как скачивать? · Что такое торрент? · Рейтинг и ограничения

Сайт не распространяет и не хранит электронные версии произведений, а лишь предоставляет доступ к создаваемому пользователями каталогу ссылок на торрент-файлы, которые содержат только списки хеш-сумм

[Профиль] [ЛС]
Показать сообщения:    
Ответить на тему

Текущее время: Сегодня 14:54

Часовой пояс: GMT + 4



Вы не можете начинать темы
Вы не можете отвечать на сообщения
Вы не можете редактировать свои сообщения
Вы не можете удалять свои сообщения
Вы не можете голосовать в опросах
Вы не можете прикреплять файлы к сообщениям
Вы не можете скачивать файлы