Небеса реальны / Heaven Is for Real (Рэндалл Уоллас / Randall Wallace) [2014, США, драма, экранизация, BDRip-AVC] VO (Andi) + Sub Eng + Original Eng

Ответить на тему
 
Автор Сообщение

user ®

Стаж: 7 лет 7 месяцев

Сообщений: 20008

Пост Пост: #1 от 18-Июл-2014 08:20

[Цитировать]

Небеса реальны / Heaven Is for Real
Страна: США
Жанр: драма, экранизация
Год выпуска: 2014
Продолжительность: 01:39:30
Перевод: Одноголосый закадровый Andi
Cубтитры: английские
Оригинальная аудиодорожка: английский
Режиссер: Рэндалл Уоллас / Randall Wallace
В ролях: Грег Киннер, Келли Райлли, Томас Хейден Чёрч, Коннор Корам, Лэйн Стайлз, Марго Мартиндейл, Джейкоб Варгас, Таня Ромеро, Дансо Гордон, Роб Моран
Описание: Главный герой меняет свое мировоззрение после того, как его 4-летний сын выходит из комы и утверждает, что был в раю. В доказательство он приводит факты из жизни их семьи, которые просто не мог знать.
Доп. информация:

Сэмпл: http://multi-up.com/987152
Качество видео: BDRip-AVC
Heaven.Is.For.Real.2014.1080p.Remux.AVC.DTS-HD.MA.5.1-ShocK/HDspace/anonymous
Формат видео: MKV
Видео: h264;960x400;Aspect Ratio: 12:5(2.40:1);1784kbps;23.976fps
Аудио: AC3;Sample Rate:48000Hz;Channel:2(Stereo);128kbps
Аудио 2: AC3;Sample Rate:48000Hz;Channel:2(Stereo);192kbps Eng
Формат субтитров: softsub (SRT)
MediaInfo
Video
ID : 1
Format : AVC
Format/Info : Advanced Video Codec
Format profile : High@L4.1
Format settings, CABAC : Yes
Format settings, ReFrames : 8 frames
Codec ID : V_MPEG4/ISO/AVC
Duration : 1h 39mn
Bit rate : 1 784 Kbps
Width : 960 pixels
Height : 400 pixels
Display aspect ratio : 2.40:1
Frame rate mode : Constant
Frame rate : 23.976 fps
Color space : YUV
Chroma subsampling : 4:2:0
Bit depth : 8 bits
Scan type : Progressive
Bits/(Pixel*Frame) : 0.194
Stream size : 1.21 GiB (83%)
Writing library : x264 core 142 Рип от KinoCollection
Encoding settings : cabac=1 / ref=8 / deblock=1:-3:-3 / analyse=0x3:0x113 / me=umh / subme=9 / psy=1 / fade_compensate=0.00 / psy_rd=1.00:0.10 / mixed_ref=1 / me_range=32 / chroma_me=1 / trellis=2 / 8x8dct=1 / cqm=0 / deadzone=21,11 / fast_pskip=0 / chroma_qp_offset=-3 / threads=6 / lookahead_threads=1 / sliced_threads=0 / nr=0 / decimate=1 / interlaced=0 / bluray_compat=0 / constrained_intra=0 / fgo=0 / bframes=16 / b_pyramid=2 / b_adapt=2 / b_bias=0 / direct=3 / weightb=0 / open_gop=1 / weightp=2 / keyint=240 / keyint_min=23 / scenecut=40 / intra_refresh=0 / rc_lookahead=240 / rc=2pass / mbtree=1 / bitrate=1784 / ratetol=1.0 / qcomp=0.60 / qpmin=0 / qpmax=69 / qpstep=4 / cplxblur=20.0 / qblur=0.5 / ip_ratio=1.40 / aq=1:1.00
Language : English
Default : Yes
Forced : No
Audio #1
ID : 2
Format : AC-3
Format/Info : Audio Coding 3
Mode extension : CM (complete main)
Format settings, Endianness : Big
Codec ID : A_AC3
Duration : 1h 39mn
Bit rate mode : Constant
Bit rate : 128 Kbps
Channel(s) : 2 channels
Channel positions : Front: L R
Sampling rate : 48.0 KHz
Bit depth : 16 bits
Compression mode : Lossy
Stream size : 91.1 MiB (6%)
Language : Russian
Default : Yes
Forced : No
Audio #2
ID : 3
Format : AC-3
Format/Info : Audio Coding 3
Mode extension : CM (complete main)
Format settings, Endianness : Big
Codec ID : A_AC3
Duration : 1h 39mn
Bit rate mode : Constant
Bit rate : 192 Kbps
Channel(s) : 2 channels
Channel positions : Front: L R
Sampling rate : 48.0 KHz
Bit depth : 16 bits
Compression mode : Lossy
Stream size : 137 MiB (9%)
Language : English
Default : No
Forced : No
Text
ID : 4
Format : UTF-8
Codec ID : S_TEXT/UTF8
Codec ID/Info : UTF-8 Plain Text
Language : English
Default : No
Forced : No
Menu
00:00:00.000 : :00:00:00.000
00:03:12.958 : :00:03:12.958
00:09:20.667 : :00:09:20.667
00:18:08.875 : :00:18:08.875
00:22:52.292 : :00:22:52.292
00:27:21.625 : :00:27:21.625
00:34:56.375 : :00:34:56.375
00:42:15.292 : :00:42:15.292
00:51:25.500 : :00:51:25.500
00:56:39.917 : :00:56:39.917
01:09:40.958 : :01:09:40.958
01:21:59.375 : :01:21:59.375
Скриншот c названием фильма Скриншоты
Скачать

Скачать торрент!

Как скачивать? · Что такое торрент? · Рейтинг и ограничения

Сайт не распространяет и не хранит электронные версии произведений, а лишь предоставляет доступ к создаваемому пользователями каталогу ссылок на торрент-файлы, которые содержат только списки хеш-сумм

[Профиль] [ЛС]
Показать сообщения:    
Ответить на тему

Текущее время: Сегодня 06:30

Часовой пояс: GMT + 4



Вы не можете начинать темы
Вы не можете отвечать на сообщения
Вы не можете редактировать свои сообщения
Вы не можете удалять свои сообщения
Вы не можете голосовать в опросах
Вы не можете прикреплять файлы к сообщениям
Вы не можете скачивать файлы