Судья Дредд / Dredd (Пит Трэвис / Pete Travis) [2012, Великобритания, США, Индия, фантастика, боевик, триллер, BDRip 1080p] [2D] Dub + 2x AVO + 3x VO + Ukr + Original (Eng) + Sub (Rus, Eng)

Ответить на тему
 
Автор Сообщение

user ®

Стаж: 7 лет 7 месяцев

Сообщений: 20008

Пост Пост: #1 от 17-Июл-2014 22:50

[Цитировать]

Судья Дредд / Dredd

-
-Страна: Великобритания, США, Индия
Студия: DNA Films, IM Global, Reliance Big Entertainment, Reliance Big Pictures
Жанр: фантастика, боевик, триллер
Год выпуска: 2012
Продолжительность: 01:35:36--Перевод 1: Профессиональный (дублированный) Blu-ray
Перевод 2: Одноголосый закадровый zamez по переводу Groby
Перевод 3: Авторский (одноголосый закадровый) Ю. Сербин
Перевод 4: Авторский (одноголосый закадровый) А. Гаврилов
Перевод 5: Одноголосый закадровый Lisitz
Перевод 6: Одноголосый закадровый MrRose по переводу antoniolagrande
Cубтитры: русские (Blu-ray, Groby), английские (full, SDH)
Оригинальная аудиодорожка: английский--Режиссер: Пит Трэвис / Pete Travis
В ролях: Карл Урбан, Оливия Тирлби, Лина Хиди, Вуд Харрис, Рэйчел Вуд, Андил Мнгади, Портес Ксандо Стинкамп, Джейсон Коуп, Эмма Бреши, Рэки Айола--Описание: Будущее не столь красочно и великолепно, каким его представляют современные люди. Через несколько столетий человечество окажется на грани самоуничтожения, захлёбываясь в кровавых преступлениях, смертельных грехах и беспорядочных убийствах. Старую систему правосудия будет невозможно использовать — анархия, всеобщие беспорядки вынуждают ещё сохранившуюся власть, тем не менее, потерявшую всякий авторитет и легитимность, пойти на отчаянные крайние меры и ввести институт Судей — универсальных полицейских, правоприменителей, а по совместительству — и прокуроров, которые упростили бы весь процесс задержания, следствия и судебных тяжб, совмещая в одном лице все должности блюстителей и защитников правопорядка.
Негодяи, подонки, вконец обнаглевшие и распоясавшиеся преступники и бандитские группировки всё равно не желают сдавать свои упрочившие позиции, опасаясь лишь одного — встречи с легендарным Судьёй Дреддом, пересажавшим или расстрелявшим не одну сотню насильников, террористов и жадных до человеческих страданий маньяков. В то время, как беспорядки и бесчинства бушуют на улицах города, Дредд спешит вернуть порядок, Закон и тишину, которым, кажется, уже никогда не обрести свою былую полноту, мощь и силу…--imdb | kinopoisk | Сэмпл--Тип релиза: BDRip 1080p [Dredd 2012 Hybrid 1080p BluRay DTS x264-Skazhutin]
Контейнер: MKV
Видео: MPEG-4 AVC / 16,0 Mbps / 1920x800 / 23,976 fps / 2,40:1 / High Profile 4.1
Аудио 1: Russian DTS / 5.1 / 48 kHz / 1509 kbps / 16 bits |Dub, Blu-ray|
Аудио 2: Russian AC3 / 5.1 / 48 kHz / 384 kbps / 16 bits |zamez|
Аудио 3: Russian DTS / 5.1 / 48 kHz / 1509 kbps / 24 bits |Ю. Сербин|
Аудио 4: Russian DTS / 5.1 / 48 kHz / 1509 kbps / 24 bits |А. Гаврилов|
Аудио 5: Russian DTS / 5.1 / 48 kHz / 1509 kbps / 24 bits |Lisitz| отдельно
Аудио 6: Russian DTS / 5.1 / 48 kHz / 1509 kbps / 24 bits |MrRose| отдельно
Аудио 7: Ukrainian DTS / 5.1 / 48 kHz / 1509 kbps / 24 bits |MVO, студия «Омикрон»| отдельно
Аудио 8: English DTS / 5.1 / 48 kHz / 1509 kbps / 24 bits |original|
Формат субтитров: softsub [SRT]

MediaInfo
Общее
Уникальный идентификатор                 : 254023052613690549209082870420913703760 (0xBF1B0F73B59E86B69EEBF9E600B6CB50)
Полное имя                               : G:\HD\Судья Дредд.2012.BDRip.(1080p)\Судья Дредд.2012.BDRip.(1080p).mkv
Формат                                   : Matroska
Версия формата                           : Version 4 / Version 2
Размер файла                             : 14,9 Гбайт
Продолжительность                        : 1 ч. 35 м.
Общий поток                              : 22,4 Мбит/сек
Дата кодирования                         : UTC 2014-07-15 15:05:37
Программа кодирования                    : mkvmerge v7.0.0 ('Where We Going') 64bit built on Jun  9 2014 15:16:27
Библиотека кодирования                   : libebml v1.3.0 + libmatroska v1.4.1
Attachment                               : Yes
Видео
Идентификатор                            : 1
Формат                                   : AVC
Формат/Информация                        : Advanced Video Codec
Профиль формата                          : High@L4.1
Параметр CABAC формата                   : Да
Параметр ReFrames формата                : 5 кадров
Идентификатор кодека                     : V_MPEG4/ISO/AVC
Продолжительность                        : 1 ч. 35 м.
Битрейт                                  : 16,0 Мбит/сек
Ширина                                   : 1920 пикселей
Высота                                   : 800 пикселей
Соотношение сторон                       : 2,40:1
Режим частоты кадров                     : Постоянный
Частота кадров                           : 23,976 кадра/сек
Цветовое пространство                    : YUV
Субдискретизация насыщенности            : 4:2:0
Битовая глубина                          : 8 бит
Тип развёртки                            : Прогрессивная
Бит/(Пиксели*Кадры)                      : 0.434
Размер потока                            : 10,3 Гбайт (69%)
Заголовок                                : Dredd 2012 Hybrid 1080p BluRay DTS x264-Skazhutin
Библиотека кодирования                   : x264 core 129 r2245kMod bc13772
Настройки программы                      : cabac=1 / ref=5 / deblock=1:-3:-3 / analyse=0x3:0x113 / me=umh / subme=11 / psy=1 / fade_compensate=0.00 / psy_rd=1.00:0.05 / mixed_ref=1 / me_range=48 / chroma_me=1 / trellis=2 / 8x8dct=1 / cqm=0 / deadzone=21,11 / fast_pskip=0 / chroma_qp_offset=-3 / threads=12 / lookahead_threads=2 / sliced_threads=0 / nr=0 / decimate=0 / interlaced=0 / bluray_compat=0 / constrained_intra=0 / bframes=10 / b_pyramid=2 / b_adapt=2 / b_bias=0 / direct=3 / weightb=1 / open_gop=0 / weightp=2 / keyint=250 / keyint_min=23 / scenecut=40 / intra_refresh=0 / rc_lookahead=40 / rc=2pass / mbtree=0 / bitrate=16000 / ratetol=1.0 / qcomp=0.70 / qpmin=0 / qpmax=69 / qpstep=4 / cplxblur=20.0 / qblur=0.5 / vbv_maxrate=50000 / vbv_bufsize=62500 / nal_hrd=none / ip_ratio=1.40 / pb_ratio=1.30 / aq=1:0.90
Язык                                     : English
Default                                  : Да
Forced                                   : Нет
Коэффициенты матрицы                     : BT.709
Аудио #1
Идентификатор                            : 2
Формат                                   : DTS
Формат/Информация                        : Digital Theater Systems
Режим                                    : 16
Параметр Endianness формата              : Big
Идентификатор кодека                     : A_DTS
Продолжительность                        : 1 ч. 35 м.
Вид битрейта                             : Постоянный
Битрейт                                  : 1509 Кбит/сек
Каналы                                   : 6 каналов
Расположение каналов                     : Front: L C R, Side: L R, LFE
Частота                                  : 48,0 КГц
Битовая глубина                          : 16 бит
Метод сжатия                             : С потерями
Размер потока                            : 1,01 Гбайт (7%)
Заголовок                                : Dub, Blu-ray
Язык                                     : Russian
Default                                  : Да
Forced                                   : Нет
Аудио #2
Идентификатор                            : 3
Формат                                   : AC-3
Формат/Информация                        : Audio Coding 3
Расширение режима                        : CM (complete main)
Параметр Endianness формата              : Big
Идентификатор кодека                     : A_AC3
Продолжительность                        : 1 ч. 35 м.
Вид битрейта                             : Постоянный
Битрейт                                  : 384 Кбит/сек
Каналы                                   : 6 каналов
Расположение каналов                     : Front: L C R, Side: L R, LFE
Частота                                  : 48,0 КГц
Битовая глубина                          : 16 бит
Метод сжатия                             : С потерями
Размер потока                            : 263 Мбайт (2%)
Заголовок                                : zamez
Язык                                     : Russian
Default                                  : Нет
Forced                                   : Нет
Аудио #3
Идентификатор                            : 4
Формат                                   : DTS
Формат/Информация                        : Digital Theater Systems
Режим                                    : 16
Параметр Endianness формата              : Big
Идентификатор кодека                     : A_DTS
Продолжительность                        : 1 ч. 35 м.
Вид битрейта                             : Постоянный
Битрейт                                  : 1509 Кбит/сек
Каналы                                   : 6 каналов
Расположение каналов                     : Front: L C R, Side: L R, LFE
Частота                                  : 48,0 КГц
Битовая глубина                          : 24 бит
Метод сжатия                             : С потерями
Размер потока                            : 1,01 Гбайт (7%)
Заголовок                                : Ю. Сербин
Язык                                     : Russian
Default                                  : Нет
Forced                                   : Нет
Аудио #4
Идентификатор                            : 5
Формат                                   : DTS
Формат/Информация                        : Digital Theater Systems
Режим                                    : 16
Параметр Endianness формата              : Big
Идентификатор кодека                     : A_DTS
Продолжительность                        : 1 ч. 35 м.
Вид битрейта                             : Постоянный
Битрейт                                  : 1509 Кбит/сек
Каналы                                   : 6 каналов
Расположение каналов                     : Front: L C R, Side: L R, LFE
Частота                                  : 48,0 КГц
Битовая глубина                          : 24 бит
Метод сжатия                             : С потерями
Размер потока                            : 1,01 Гбайт (7%)
Заголовок                                : А. Гаврилов
Язык                                     : Russian
Default                                  : Нет
Forced                                   : Нет
Аудио #5
Идентификатор                            : 6
Формат                                   : DTS
Формат/Информация                        : Digital Theater Systems
Режим                                    : 16
Параметр Endianness формата              : Big
Идентификатор кодека                     : A_DTS
Продолжительность                        : 1 ч. 35 м.
Вид битрейта                             : Постоянный
Битрейт                                  : 1509 Кбит/сек
Каналы                                   : 6 каналов
Расположение каналов                     : Front: L C R, Side: L R, LFE
Частота                                  : 48,0 КГц
Битовая глубина                          : 24 бит
Метод сжатия                             : С потерями
Размер потока                            : 1,01 Гбайт (7%)
Язык                                     : English
Default                                  : Нет
Forced                                   : Нет
Текст #1
Идентификатор                            : 7
Формат                                   : UTF-8
Идентификатор кодека                     : S_TEXT/UTF8
Идентификатор кодека/Информация          : UTF-8 Plain Text
Заголовок                                : Blu-ray
Язык                                     : Russian
Default                                  : Нет
Forced                                   : Нет
Текст #2
Идентификатор                            : 8
Формат                                   : UTF-8
Идентификатор кодека                     : S_TEXT/UTF8
Идентификатор кодека/Информация          : UTF-8 Plain Text
Заголовок                                : Groby
Язык                                     : Russian
Default                                  : Нет
Forced                                   : Нет
Текст #3
Идентификатор                            : 9
Формат                                   : UTF-8
Идентификатор кодека                     : S_TEXT/UTF8
Идентификатор кодека/Информация          : UTF-8 Plain Text
Заголовок                                : full
Язык                                     : English
Default                                  : Нет
Forced                                   : Нет
Текст #4
Идентификатор                            : 10
Формат                                   : UTF-8
Идентификатор кодека                     : S_TEXT/UTF8
Идентификатор кодека/Информация          : UTF-8 Plain Text
Заголовок                                : SDH
Язык                                     : English
Default                                  : Нет
Forced                                   : Нет
Меню
00:00:00.000                             : :Chapter 01
00:13:33.854                             : :Chapter 02
00:26:33.341                             : :Chapter 03
00:39:32.661                             : :Chapter 04
00:51:02.267                             : :Chapter 05
01:04:03.881                             : :Chapter 06
01:18:01.385                             : :Chapter 07
01:29:53.679                             : :Chapter 08
Скриншоты Дополнительно
Дубляж, переводы Ю. Сербина и А. Гаврилова взяты с ремукса HDCLUB, за что спасибо Diablo
Перевод Юрия Сербина выполнен в рамках сервиса "Озвучивание" совместно с DVD100 и E180. Спонсоры HDCLUB: Turko, tambov68, Gans437, Loki1982, GKillah, ultrajeka, Dervish, ZeRoNe; Спонсоры E180: пуля, Serene, Slimka, tide, fen, drichsh, Tio, dr_akula, vik19662007, carnivale, Andrey_Tula, uchitel538, Ramis, Foots, YoGuRt-82, STONECOLD, dir, Bilko и Iceman.
За заказ озвучки Андрея Гаврилова спасибо hdtracker: therox, shitman82, dunhill200, lexal, Chistobaev, AVO-Detector, eyrobot, Guyver, IgorNN, Skibichok, TvarYuri, audiolubitel, Volfgang77, Slimka, Rolly Tyler, feldeger, Loki, Pain_70, _MyxAmoP_, chef&chef, WhiteHorse, KpucTo161, LAVR, Vimann, edsz, maximus1099, GaryH, MeGUI, Anatoliy555, FSOL, hulahup, murkon, spacenoise, vladdikvla, ZeRoNe, Dans, shtift, Reyn, fly32, darkman70, GansAn, dark1982, apollion, karanrin66, AndreyTula, Xerman13, doctor811, TOMAN, Klester, Pe3aK и -Джосс-.
За заказ украинской озвучки (студия «Омикрон») спасибо: lionlegion, Pit33, Володимир, TyNeLo, uarenik, legat, 310763, buddilnik, orest_music, funtruhnet, Uptown, olfed111, vifilo, sigito, Oleksandr, ron_, Рудобородий, lomkovsky, Navarra, igor911, talantgor, Nevestiuk, shambig, velizariy, Batiaruk, vovaz, boblv, shangri-la, leshkm, 5E_koleco, webamator.org.ua, sanekjn, YURIYUXO, stadion.lviv.ua, SunWind, wtr, dimaandr, Xobit, Kalynka Rosso, nazar, knockout, Кость, dimic, Infoserfer, Кумяр, TIPERUS, antoxxa082, yarik_ratnik, nastik., TriVVet, IvanB123456, Roni, Петро21, albioriks, denskipper, avtoboss, yozhh, vdima82, steeple, Gotenot, Лілія, nik, ameks, mikolay, @knygoyid, sashaiv74, Кузьма72, jona, Olegatr, М_а_м_а_й, have got, TarasD, GodSaveUkraine, shtein, Gxost, Олександр, Sturm_UA, Jonsen, lynxnake, OlegVysh, Demetrios, Sirpent, tarand, zalexxx, barbarian, Tank302, Неля Глушко, chaliy, merlin_zaraza, cyclone2000, rybanok27, alex4e, Ingvar, Aussie, loiknazar, olfed111, Sensetivity, cyberprostir, Est, Sepoolka, bandera77, Vikk, Warrog, GrossQX, zavzyata, ValicV, Myshko3007, ghost392, Soarus12345, Fizia, vladyk, Xshot, viter07, Yellow_man, iro4ka_skin, lerk, MisterR, tumick, Leksyk, Chirka, somnambula, MarianB, Mr Yuran, nelester, panama58, Лунсар, Sheldon, stalker_cv, yg, Nikson, fishMD, nemos, hummer и всем остальным, которые пожелали сохранить анонимность. В прокате фильм демонстрировался исключительно на русском языке!
Dredd 2012 Hybrid 1080p BluRay DTS x264-Skazhutin
RELEASE NAME..: Dredd 2012 Hybrid 1080p BluRay DTS x264-Skazhutin
RELEASE DATE..: 11/02/2013
RELEASE SIZE..: 11.6 GB
RUNTIME.......: 01:35:36
VIDEO CODEC...: x264, 2pass, L4.1
FRAMERATE.....: 23.976 fps
BITRATE.......: 16000 Kbps
RESOLUTION....: 1920x800
AUDIO.........: English / DTS 5.1 / 1509 Kbps
SUBTITLES.....: Bul, Cze, Eng, Gre, Rus, Swe
CHAPTER.......: Included
SOURCE1.......: Dredd 2012 1080p Blu-ray AVC TrueHD 5.1-HDRoad
SOURCE2.......: Dredd 2012 1080p NOR Blu-ray AVC DTS-HD MA 7.1
SOURCE3.......: Dredd 2012 1080p 3D Blu-ray AVC DTS-HD MA 7.1-PublicHD (audio track)
Note: The NOR bd contains some bad scenes, I replaced them using the HK bd.
x264.INFO:
x264 [info]: frame I:1045  Avg QP:13.85  size:238939
x264 [info]: frame P:29183 Avg QP:15.91  size:140307
x264 [info]: frame B:107302 Avg QP:17.89  size: 66010
x264 [info]: consecutive B-frames:  2.6%  2.2%  8.5% 11.8% 10.0% 56.1%  3.7%  2.9%  1.1%  0.6%  0.5%
new encode | hybrid | old encode


Скачать

Скачать торрент!

Как скачивать? · Что такое торрент? · Рейтинг и ограничения

Сайт не распространяет и не хранит электронные версии произведений, а лишь предоставляет доступ к создаваемому пользователями каталогу ссылок на торрент-файлы, которые содержат только списки хеш-сумм

[Профиль] [ЛС]
Показать сообщения:    
Ответить на тему

Текущее время: Сегодня 06:30

Часовой пояс: GMT + 4



Вы не можете начинать темы
Вы не можете отвечать на сообщения
Вы не можете редактировать свои сообщения
Вы не можете удалять свои сообщения
Вы не можете голосовать в опросах
Вы не можете прикреплять файлы к сообщениям
Вы не можете скачивать файлы