Ной / Noah (Даррен Аронофски / Darren Aronofsky) [2014, США, драма, приключения, фэнтези, BDRip 1080p] Dub (iTunes) + 2х VO (Есарев, lord666) + Original (Eng) + Sub (Rus, Eng)

Ответить на тему
 
Автор Сообщение

user ®

Стаж: 7 лет 7 месяцев

Сообщений: 20008

Пост Пост: #1 от 17-Июл-2014 22:50

[Цитировать]

Ной / Noah
Страна: США
Производство: Paramount Pictures, Disruption Entertainment, New Regency Pictures, Protozoa Pictures
Жанр: драма, приключения, фэнтези
Год выпуска: 2014
Продолжительность: 02:17:53
Перевод 1: Профессиональный (дублированный) [iTunes]
Перевод 2: Одноголосый закадровый [Есарев]
Перевод 3: Одноголосый закадровый [lord666]
Оригинальная аудиодорожка: английская
Cубтитры: русские (Forced, Full), английские (Full, SDH, SDH-colored)
Режиссер: Даррен Аронофски / Darren Aronofsky
В ролях: Расселл Кроу, Эмма Уотсон, Дженнифер Коннелли, Логан Лерман, Дуглас Бут, Энтони Хопкинс, Рэй Уинстон, Кевин Дюран, Дакота Гойо, Ник Нолт, Сами Гейл, Бэрри Слоун, Мартон Чокаш, Марк Марголис, Фрэнк Лангелла, Мэдисон Девенпорт, Финн Уиттрок, Дон Харви, Софи Нювейде, Рэймонд Мэмрак
Описание: Пересказ библейской истории о Ноевом Ковчеге. В мире, развращенном человеческим грехом, Ною предначертана божественная миссия: построить Ковчег и спасти все живое.

Релиз: fanatus
Качество видео: BDRip 1080p
Исходник: Noah.2014.1080p.BluRay
Контейнер: MKV
Видео: MPEG-4 AVC, 16.6 Mbps (68%), 1920x1040 (1.85:1), 23.976 fps, 0.347 bit/pixel
Аудио 1: русский (AC3, 6 ch, 48 kHz, 384 kbps) Dub (iTunes)
Аудио 2: русский (DTS, 6 ch, 48 kHz, 1510 kbps) VO (Esarev)
Аудио 3: русский (AC3, 6 ch, 48 kHz, 448 kbps) VO (lord666)
Аудио 4: английский (DTS, 6 ch, 48 kHz, 1510 kbps) Original
Формат субтитров: softsub (SRT)
Главы: есть
MediaInfo
General
Unique ID : 170996336680277899292787097077630603762 (0x80A4B24F16DC070DB5086D4A62DB91F2)
Complete name : E:\Noah.2013.x264.BDRip.1080p.fanatus.mkv
Format : Matroska
Format version : Version 2
File size : 19.6 GiB
Duration : 2h 17mn
Overall bit rate : 20.4 Mbps
Movie name : Noah (2014) - fanatus
Encoded date : UTC 2014-07-16 10:08:28
Writing application : mkvmerge v3.4.0 ('Rapunzel') сборка от May 15 2010 09:38:20
Writing library : libebml v0.8.0 + libmatroska v0.9.0
Attachment : Yes
Video
ID : 1
Format : AVC
Format/Info : Advanced Video Codec
Format profile : High@L4.1
Format settings, CABAC : Yes
Format settings, ReFrames : 4 frames
Codec ID : V_MPEG4/ISO/AVC
Duration : 2h 17mn
Bit rate : 16.6 Mbps
Width : 1 920 pixels
Height : 1 040 pixels
Display aspect ratio : 1.85:1
Frame rate : 23.976 fps
Color space : YUV
Chroma subsampling : 4:2:0
Bit depth : 8 bits
Scan type : Progressive
Bits/(Pixel*Frame) : 0.347
Stream size : 15.5 GiB (79%)
Title : Noah (2014) BDRip(1080p)
Writing library : x264 core 142 r2431+42 c69a006 tMod [8-bit@all X86]
Encoding settings : cabac=1 / ref=4 / deblock=1:-3:-3 / analyse=0x3:0x113 / me=tesa / subme=11 / psy=1 / fade_compensate=0.00 / psy_rd=1.00:0.20 / mixed_ref=1 / me_range=64 / chroma_me=1 / trellis=2 / 8x8dct=1 / cqm=0 / deadzone=21,11 / fast_pskip=0 / chroma_qp_offset=-3 / threads=16 / lookahead_threads=2 / sliced_threads=0 / nr=0 / decimate=0 / interlaced=0 / bluray_compat=0 / constrained_intra=0 / fgo=0 / bframes=9 / b_pyramid=2 / b_adapt=2 / b_bias=0 / direct=3 / weightb=1 / open_gop=0 / weightp=2 / keyint=240 / keyint_min=23 / scenecut=40 / intra_refresh=0 / rc_lookahead=240 / rc=2pass / mbtree=0 / bitrate=16600 / ratetol=1.0 / qcomp=0.70 / qpmin=0:0:0 / qpmax=69:69:69 / qpstep=4 / cplxblur=20.0 / qblur=0.5 / vbv_maxrate=50000 / vbv_bufsize=62500 / nal_hrd=none / filler=0 / ip_ratio=1.30 / pb_ratio=1.20 / aq=4:0.65 / aq-sensitivity=10.00 / aq-factor=1.00:1.00:1.00 / aq2=0 / aq3=0
Language : English
Default : Yes
Forced : No
Audio #1
ID : 2
Format : AC-3
Format/Info : Audio Coding 3
Mode extension : CM (complete main)
Format settings, Endianness : Big
Codec ID : A_AC3
Duration : 2h 17mn
Bit rate mode : Constant
Bit rate : 384 Kbps
Channel(s) : 6 channels
Channel positions : Front: L C R, Side: L R, LFE
Sampling rate : 48.0 KHz
Bit depth : 16 bits
Compression mode : Lossy
Stream size : 379 MiB (2%)
Title : Dub (iTunes)
Language : Russian
Default : Yes
Forced : No
Audio #2
ID : 3
Format : DTS
Format/Info : Digital Theater Systems
Codec ID : A_DTS
Duration : 2h 17mn
Bit rate mode : Constant
Bit rate : 1 510 Kbps
Channel(s) : 6 channels
Channel positions : Front: L C R, Side: L R, LFE
Sampling rate : 48.0 KHz
Bit depth : 24 bits
Compression mode : Lossy
Stream size : 1.45 GiB (7%)
Title : VO (Esarev)
Language : Russian
Default : No
Forced : No
Audio #3
ID : 4
Format : AC-3
Format/Info : Audio Coding 3
Mode extension : CM (complete main)
Format settings, Endianness : Big
Codec ID : A_AC3
Duration : 2h 17mn
Bit rate mode : Constant
Bit rate : 448 Kbps
Channel(s) : 6 channels
Channel positions : Front: L C R, Side: L R, LFE
Sampling rate : 48.0 KHz
Bit depth : 16 bits
Compression mode : Lossy
Stream size : 442 MiB (2%)
Title : VO (lord666)
Language : Russian
Default : No
Forced : No
Audio #4
ID : 5
Format : DTS
Format/Info : Digital Theater Systems
Codec ID : A_DTS
Duration : 2h 17mn
Bit rate mode : Constant
Bit rate : 1 510 Kbps
Channel(s) : 6 channels
Channel positions : Front: L C R, Side: L R, LFE
Sampling rate : 48.0 KHz
Bit depth : 24 bits
Compression mode : Lossy
Stream size : 1.45 GiB (7%)
Title : Original
Language : English
Default : No
Forced : No
Text #1
ID : 6
Format : UTF-8
Codec ID : S_TEXT/UTF8
Codec ID/Info : UTF-8 Plain Text
Title : Forced (iTunes)
Language : Russian
Default : Yes
Forced : Yes
Text #2
ID : 7
Format : UTF-8
Codec ID : S_TEXT/UTF8
Codec ID/Info : UTF-8 Plain Text
Title : Full (iTunes)
Language : Russian
Default : No
Forced : No
Text #3
ID : 8
Format : UTF-8
Codec ID : S_TEXT/UTF8
Codec ID/Info : UTF-8 Plain Text
Title : notabenoid
Language : Russian
Default : No
Forced : No
Text #4
ID : 9
Format : UTF-8
Codec ID : S_TEXT/UTF8
Codec ID/Info : UTF-8 Plain Text
Title : Full
Language : English
Default : No
Forced : No
Text #5
ID : 10
Format : UTF-8
Codec ID : S_TEXT/UTF8
Codec ID/Info : UTF-8 Plain Text
Title : SDH
Language : English
Default : No
Forced : No
Text #6
ID : 11
Format : UTF-8
Codec ID : S_TEXT/UTF8
Codec ID/Info : UTF-8 Plain Text
Title : SDH-colored
Language : English
Default : No
Forced : No
Menu
00:00:00.000 : en:00:00:00.000
00:04:48.955 : en:00:04:48.955
00:08:37.267 : en:00:08:37.267
00:12:23.034 : en:00:12:23.034
00:18:43.080 : en:00:18:43.080
00:23:25.487 : en:00:23:25.487
00:32:06.424 : en:00:32:06.424
00:37:27.203 : en:00:37:27.203
00:42:50.735 : en:00:42:50.735
00:54:35.647 : en:00:54:35.647
01:01:14.963 : en:01:01:14.963
01:03:28.596 : en:01:03:28.596
01:09:33.795 : en:01:09:33.795
01:19:18.337 : en:01:19:18.337
01:21:56.537 : en:01:21:56.537
01:29:12.347 : en:01:29:12.347
01:34:02.053 : en:01:34:02.053
01:40:27.355 : en:01:40:27.355
01:49:23.098 : en:01:49:23.098
01:55:57.826 : en:01:55:57.826
02:00:37.230 : en:02:00:37.230
02:11:32.676 : en:02:11:32.676
x264 [info]
x264 [info]: 1920x1040p 1:1 @ 24000/1001 fps (cfr)
x264 [info]: frame I:1270 Avg QP:17.09 size:357840
x264 [info]: frame P:45274 Avg QP:18.94 size:125105
x264 [info]: frame B:151813 Avg QP:20.16 size: 72399
x264 [info]: consecutive B-frames: 3.2% 4.0% 11.9% 8.7% 13.6% 49.3% 5.4% 1.3% 1.2% 1.4%
Скриншот c названием фильма Скриншоты Source vs Rip
Source vs Don vs fanatus




Скачать

Скачать торрент!

Как скачивать? · Что такое торрент? · Рейтинг и ограничения

Сайт не распространяет и не хранит электронные версии произведений, а лишь предоставляет доступ к создаваемому пользователями каталогу ссылок на торрент-файлы, которые содержат только списки хеш-сумм

[Профиль] [ЛС]
Показать сообщения:    
Ответить на тему

Текущее время: Сегодня 20:03

Часовой пояс: GMT + 4



Вы не можете начинать темы
Вы не можете отвечать на сообщения
Вы не можете редактировать свои сообщения
Вы не можете удалять свои сообщения
Вы не можете голосовать в опросах
Вы не можете прикреплять файлы к сообщениям
Вы не можете скачивать файлы