Дневник наёмного убийцы / Diary of a Hitman (Рой Лондон / Roy London) [1991, США, триллер, драма, криминал, HDTV 1080i] DVO (НТВ+) + AVO (А. Гаврилов) + AVO (С. Визгунов) + Sub Eng + Original Eng

Ответить на тему
 
Автор Сообщение

user ®

Стаж: 7 лет 7 месяцев

Сообщений: 20008

Пост Пост: #1 от 17-Июл-2014 22:50

[Цитировать]

Дневник наёмного убийцы / Diary of a Hitman
Страна: США
Студия: Vision International, Continental Film Group Ltd
Жанр: триллер, драма, криминал
Год выпуска: 1991
Продолжительность: 01:26:31
Перевод 1: Профессиональный (двухголосый закадровый) НТВ+
Перевод 2: Авторский (одноголосый закадровый) А. Гаврилов
Перевод 3: Авторский (одноголосый закадровый) С. Визгунов
Cубтитры: английские
Оригинальная аудиодорожка: английский
Режиссер: Рой Лондон / Roy London
В ролях: Форест Уитакер, Шерилин Фенн, Шэрон Стоун, Джеймс Белуши, Сеймур Кэссел, Джон Бедфорд Ллойд, Вейн Кроуфорд, Бретт Рикаби, Лоис Чайлз, Кен Лернер.
Описание: Душевным человеком был этот киллер Деккер ! Он любил детей и своих соседей и никого не обижал. А убийства это чистый бизнес и ничего личного ! Но однажды неприятный тип по имени Зейн нанял Деккера для убийства своей жены и грудного младенца. Деккер пошел на дело и это переменило его жизнь !
II Сэмпл II IMDB II
Доп. информация:
За перевод А. Гаврилова спасибо Ace34 и alenavova
Тип релиза: HDTV 1080i
Контейнер: MKV
Видео: AVC, 1920x1080, (16:9), 25.0fps, Bit rate 5149Kbps
Аудио 1: MP2, 48.0 KHz, 2ch., 192kbps, rus, dvo
Аудио 2: AC3, 48.0 KHz, 2ch., 192kbps, rus, avo
Аудио 3: AC3, 48.0 KHz, 2ch., 192kbps, rus, avo
Аудио 4: AC3, 48.0 KHz, 2ch., 192kbps, eng
Формат субтитров: softsub (SRT)
MediaInfo
Общее
Уникальный идентификатор : 176026819634720282922147921781779584554 (0x846D88447BC93E2BAD3CA6ADE3EBD62A)
Полное имя : E:\torrent\Diary.of.a.Hitman.1991.HDTV.1080i.mkv
Формат : Matroska
Версия формата : Version 4 / Version 2
Размер файла : 3,65 Гбайт
Продолжительность : 1 ч. 26 м.
Общий поток : 6037 Кбит/сек
Дата кодирования : UTC 2014-07-17 02:02:10
Программа кодирования : mkvmerge v7.0.0 ('Where We Going') 64bit built on Jun 9 2014 15:16:27
Библиотека кодирования : libebml v1.3.0 + libmatroska v1.4.1
DURATION : 01:22:44.080000000
NUMBER_OF_FRAMES : 1324
NUMBER_OF_BYTES : 42641
_STATISTICS_WRITING_APP : mkvmerge v7.0.0 ('Where We Going') 64bit built on Jun 9 2014 15:16:27
_STATISTICS_WRITING_DATE_UTC : 2014-07-17 02:02:10
_STATISTICS_TAGS : BPS DURATION NUMBER_OF_FRAMES NUMBER_OF_BYTES
Видео
Идентификатор : 1
Формат : AVC
Формат/Информация : Advanced Video Codec
Профиль формата : High@L4.0
Параметр CABAC формата : Да
Параметр ReFrames формата : 3 кадра
Параметр GOP формата : M=4, N=32
Идентификатор кодека : V_MPEG4/ISO/AVC
Продолжительность : 1 ч. 26 м.
Битрейт : 5149 Кбит/сек
Ширина : 1920 пикселей
Высота : 1080 пикселей
Соотношение сторон : 16:9
Режим частоты кадров : Постоянный
Частота кадров : 25,000 кадров/сек
Стандарт вещания : Component
Цветовое пространство : YUV
Субдискретизация насыщенности : 4:2:0
Битовая глубина : 8 бит
Тип развёртки : Чересстрочная
Порядок развёртки : Верхнее поле первое
Бит/(Пиксели*Кадры) : 0.099
Размер потока : 3,11 Гбайт (85%)
Заголовок : Diary.of.a.Hitman.1991.HDTV.1080i_AVC_25.0fps_5214Kbps_High@L4.0
Default : Да
Forced : Нет
Основные цвета : BT.709
Характеристики трансфера : BT.709
Коэффициенты матрицы : BT.709
Аудио #1
Идентификатор : 2
Формат : MPEG Audio
Версия формата : Version 1
Профиль формата : Layer 2
Идентификатор кодека : A_MPEG/L2
Идентификатор кодека/Подсказка : MP2
Продолжительность : 1 ч. 26 м.
Вид битрейта : Постоянный
Битрейт : 192 Кбит/сек
Каналы : 2 канала
Частота : 48,0 КГц
Метод сжатия : С потерями
Размер потока : 119 Мбайт (3%)
Заголовок : MP2_2ch_192kbps_rus_dvo_NTV+
Язык : Russian
Default : Да
Forced : Нет
Аудио #2
Идентификатор : 3
Формат : AC-3
Формат/Информация : Audio Coding 3
Расширение режима : CM (complete main)
Параметр Endianness формата : Big
Идентификатор кодека : A_AC3
Продолжительность : 1 ч. 26 м.
Вид битрейта : Постоянный
Битрейт : 192 Кбит/сек
Каналы : 2 канала
Расположение каналов : Front: L R
Частота : 48,0 КГц
Битовая глубина : 16 бит
Метод сжатия : С потерями
Размер потока : 119 Мбайт (3%)
Заголовок : AC3_2ch_192kbps_rus_avo_Gavrilov
Язык : Russian
Default : Нет
Forced : Нет
Аудио #3
Идентификатор : 4
Формат : AC-3
Формат/Информация : Audio Coding 3
Расширение режима : CM (complete main)
Параметр Endianness формата : Big
Идентификатор кодека : A_AC3
Продолжительность : 1 ч. 26 м.
Вид битрейта : Постоянный
Битрейт : 192 Кбит/сек
Каналы : 2 канала
Расположение каналов : Front: L R
Частота : 48,0 КГц
Битовая глубина : 16 бит
Метод сжатия : С потерями
Размер потока : 119 Мбайт (3%)
Заголовок : AC3_2ch_192kbps_rus_avo_Vizgunov
Язык : Russian
Default : Нет
Forced : Нет
Аудио #4
Идентификатор : 5
Формат : AC-3
Формат/Информация : Audio Coding 3
Расширение режима : CM (complete main)
Параметр Endianness формата : Big
Идентификатор кодека : A_AC3
Продолжительность : 1 ч. 26 м.
Вид битрейта : Постоянный
Битрейт : 192 Кбит/сек
Каналы : 2 канала
Расположение каналов : Front: L R
Частота : 48,0 КГц
Битовая глубина : 16 бит
Метод сжатия : С потерями
Размер потока : 119 Мбайт (3%)
Заголовок : AC3_2ch_192kbps_original eng
Язык : English
Default : Нет
Forced : Нет
Текст
Идентификатор : 6
Формат : UTF-8
Идентификатор кодека : S_TEXT/UTF8
Идентификатор кодека/Информация : UTF-8 Plain Text
Заголовок : subtitle eng
Язык : English
Default : Нет
Forced : Нет
Скриншот с названием фильма Скриншоты Сравнение с DVD
Скачать

Скачать торрент!

Как скачивать? · Что такое торрент? · Рейтинг и ограничения

Сайт не распространяет и не хранит электронные версии произведений, а лишь предоставляет доступ к создаваемому пользователями каталогу ссылок на торрент-файлы, которые содержат только списки хеш-сумм

[Профиль] [ЛС]
Показать сообщения:    
Ответить на тему

Текущее время: Сегодня 18:07

Часовой пояс: GMT + 4



Вы не можете начинать темы
Вы не можете отвечать на сообщения
Вы не можете редактировать свои сообщения
Вы не можете удалять свои сообщения
Вы не можете голосовать в опросах
Вы не можете прикреплять файлы к сообщениям
Вы не можете скачивать файлы