Небеса реальны / Heaven Is for Real (Рэндалл Уоллес / Randall Wallace) [2014, США, мелодрама, DVDRip] VO (Andi)

Ответить на тему
 
Автор Сообщение

user ®

Стаж: 7 лет 7 месяцев

Сообщений: 20008

Пост Пост: #1 от 17-Июл-2014 02:15

[Цитировать]

Небеса реальны / Heaven Is for Real
Страна: США
Жанр: мелодрама
Год выпуска: 2014
Продолжительность: 01:39:29
Перевод: Одноголосый закадровый ([url=http://***/forum/profile.php?mode=viewprofile&u=6584813]Andi[/url])
Cубтитры: нет
Режиссер: Рэндалл Уоллес / Randall Wallace
Кассовые сборы: 100 миллионов долларов (при бюджете в 12 миллионов)
В ролях: Грег Киннер, Келли Райлли, Томас Хейден Чёрч, Коннор Корам, Лэйн Стайлз, Марго Мартиндейл, Джейкоб Варгас
Описание: Размеренная и спокойная жизнь священника из маленького городка оказывается нарушена неожиданным и странным событием: его 4-летний сын утверждает, что во время недавно перенесенной операции покидал свое тело и побывал в раю. В доказательство он приводит факты из жизни семьи, которые просто не мог знать.
Очень скоро семья священника оказывается в центре истерии, устроенной СМИ, а многим участникам этих событий приходится задуматься: можно ли рассматривать эту историю как доказательство непреложности христианских догматов...
Доп. информация: фильм снят в формате так называемой "христианской драмы", которая является частью очень большого культурного пласта современной американской массовой культуры известной как "христианский фикшн".
Ежегодно выходят десятки книг и фильмов в формате "христианский фикшн", отличительными особенностями всех этих произведений являются:
защита традиционных ценностей
ярко выраженный религиозный уклон
Как бы вы не относились к фильмам и книгам такого рода, у них нельзя отнять главного:
они учат своих зрителей и читателей, что, объединившись, мы можем справиться с любой проблемой, приходить на помощь другим - это благородно, а высшие ценности - это доброта и любовь к ближнему
Только за последние 6 месяцев в широкий прокат в США, помимо "Небеса реальны", вышли несколько фильмов такого же формата, собравших хорошую кассу.
До российского проката эти фильмы, как правило, не доходят.
"Небеса реальны" окупили свой весьма скромный бюджет (большая часть которого ушла на зарплату Грега Киннера и Томаса Хейдена Чёрча) в первую же неделю проката, а затем, протаранив американский бокс-офис, фильм принес своим создателям 100 миллионов, став самой успешной "христианской драмой" в истории кино
Предупреждение:
если вы являетесь атеистом, этот фильм может оскорбить ваши атеистические чувства
Над релизом работали:
перевод был начат на сайте Нотабеноид (спасибо, виктория, алекс, тридэн)
завершающий этап работы и редакторская правка осуществлены мной (М.Васильев)
озвучка: Andi
Релиз группа

желает всем приятного просмотра
Сэмпл: https://yadi.sk/i/c3Zwsu4nWivGa
Качество видео: DVDRip
Формат видео: AVI
Видео: 843 Kbps, 640x272 (2.35:1), 23 976 fps, MPEG 4 XviD
Аудио: 128 Kbps, 48.0 KHz, 16 bits, 2 ch, AC 3
MediaInfo
General
Complete name : C:\Users\Владелец\Downloads\небо.avi
Format : AVI
Format/Info : Audio Video Interleave
File size : 698 MiB
Duration : 1h 39mn
Overall bit rate : 980 Kbps
Writing application : VirtualDubMod 1.5.10.2 (build 2540/release)
Writing library : VirtualDubMod build 2540/release
Video
ID : 0
Format : MPEG-4 Visual
Format profile : Advanced Simple@L5
Format settings, BVOP : 2
Format settings, QPel : No
Format settings, GMC : No warppoints
Format settings, Matrix : Default (H.263)
Codec ID : XVID
Codec ID/Hint : XviD
Duration : 1h 39mn
Bit rate : 843 Kbps
Width : 640 pixels
Height : 272 pixels
Display aspect ratio : 2.35:1
Frame rate : 23.976 fps
Color space : YUV
Chroma subsampling : 4:2:0
Bit depth : 8 bits
Scan type : Progressive
Compression mode : Lossy
Bits/(Pixel*Frame) : 0.202
Stream size : 600 MiB (86%)
Writing library : XviD 65
Audio
ID : 1
Format : AC-3
Format/Info : Audio Coding 3
Mode extension : CM (complete main)
Format settings, Endianness : Big
Codec ID : 2000
Duration : 1h 39mn
Bit rate mode : Constant
Bit rate : 128 Kbps
Channel(s) : 2 channels
Channel positions : Front: L R
Sampling rate : 48.0 KHz
Bit depth : 16 bits
Compression mode : Lossy
Stream size : 91.1 MiB (13%)
Alignment : Split accross interleaves
Interleave, duration : 42 ms (1.00 video frame)
Interleave, preload duration : 500 ms
Скриншот c названием фильма Скриншоты
Скачать

Скачать торрент!

Как скачивать? · Что такое торрент? · Рейтинг и ограничения

Сайт не распространяет и не хранит электронные версии произведений, а лишь предоставляет доступ к создаваемому пользователями каталогу ссылок на торрент-файлы, которые содержат только списки хеш-сумм

[Профиль] [ЛС]
Показать сообщения:    
Ответить на тему

Текущее время: Сегодня 20:04

Часовой пояс: GMT + 4



Вы не можете начинать темы
Вы не можете отвечать на сообщения
Вы не можете редактировать свои сообщения
Вы не можете удалять свои сообщения
Вы не можете голосовать в опросах
Вы не можете прикреплять файлы к сообщениям
Вы не можете скачивать файлы