Крайний случай / Theevram (Рупеш Питамбаран / Roopesh Peethambaran) [2012, Индия, Криминальный триллер, DVDRip] + Sub Rus

Ответить на тему
 
Автор Сообщение

user ®

Стаж: 12 лет

Сообщений: 15092

Пост Пост: #1 от 16-Июл-2014 11:05

[Цитировать]

Крайний случай / Theevram
Страна: Индия
Оригинальная аудиодорожка: Малаялам
Жанр: Криминальный триллер
Год выпуска: 2012
Продолжительность: 02:16:17
Перевод: Субтитры
Cубтитры: русские
Перевод и редакция субтитров: Lauri(спасибо!)
Режиссер: Рупеш Питамбаран / Roopesh Peethambaran
В ролях: Дулкар Салмаан, Шикха Наир, Шринивасан, Винай Форт, Вишну Рагхав, Рия Сайра, Ану Мохан, Унни Мукундан (специально приглашённый)
Описание: Господи.. Ну что за жизнь.. Отец был полицейским, дед был полицейским, а я-то за что должен мучиться? Семейный статус... И кто только придумал эту чушь? Следствие, опознания, трупы... Никаких сил нет. Того и гляди, в обморок грохнешься на глазах у подчиненных, позорище. Сейчас бы в отставку и к матери на ферму - голубое небо, зеленая травка... Так нет, начальство уперлось: Алекс, ты наш лучший следователь, забудь об отставке - жди повышения! Дождешься его, как же - когда крокодил свистнет. А это еще что за хромая? Да пропусти ты ее, олух, она же не ради развлечения в полицейский участок пришла - проблемы у нее. Муж пропал? Будто все они не пропадают.. Что? Даже не ссорились ни разу? Примерный семьянин? И у друзей нет? Ладно, давай фотографию, будем искать. Постой-ка... Это же старый знакомый...
Сэмпл: http://multi-up.com/986596
Качество видео: DVDRip
Формат видео: AVI
Видео: XviD, 720x304, 23.976 fps, 1191 kbps
Аудио: AC3, 48 kHz, 5.1 (6 ch), 320 kbps
Формат субтитров: hardsub (неотключаемые)
MediaInfo
Format : AVI
Format/Info : Audio Video Interleave
File size : 1.45 GiB
Duration : 2h 16mn
Overall bit rate : 1 520 Kbps
Writing application : VirtualDubMod 1.5.10.2 (build 2542/release)
Writing library : VirtualDubMod build 2542/release
Video #0
ID : 0
Format : MPEG-4 Visual
Format profile : Advanced Simple@L5
Format settings, BVOP : 2
Format settings, QPel : No
Format settings, GMC : No warppoints
Format settings, Matrix : Default (H.263)
Muxing mode : Packed bitstream
Codec ID : XVID
Codec ID/Hint : XviD
Duration : 2h 16mn
Bit rate : 1 191 Kbps
Width : 720 pixels
Height : 304 pixels
Display aspect ratio : 2.35:1
Frame rate : 23.976 fps
Color space : YUV
Chroma subsampling : 4:2:0
Bit depth : 8 bits
Scan type : Progressive
Compression mode : Lossy
Bits/(Pixel*Frame) : 0.227
Stream size : 1.13 GiB (78%)
Writing library : XviD 63
Audio #1
ID : 1
Format : AC-3
Format/Info : Audio Coding 3
Mode extension : CM (complete main)
Codec ID : 2000
Duration : 2h 16mn
Bit rate mode : Constant
Bit rate : 320 Kbps
Channel(s) : 6 channels
Channel positions : Front: L C R, Side: L R, LFE
Sampling rate : 48.0 KHz
Bit depth : 16 bits
Compression mode : Lossy
Stream size : 312 MiB (21%)
Alignment : Split accross interleaves
Interleave, duration : 42 ms (1.00 video frame)
Interleave, preload duration : 500 ms
Скриншот c названием фильма Скриншоты
Скачать

Скачать торрент! Крайний случай / Theevram (Рупеш Питамбаран / Roopesh Peethambaran) [2012, Индия, Криминальный триллер, DVDRip] + Sub Rus

Как скачивать? · Что такое торрент? · Рейтинг и ограничения

Сайт не распространяет и не хранит электронные версии произведений, а лишь предоставляет доступ к создаваемому пользователями каталогу ссылок на торрент-файлы, которые содержат только списки хеш-сумм

[Профиль] [ЛС]
Показать сообщения:    
Ответить на тему

Текущее время: Сегодня 16:28

Часовой пояс: GMT + 4



Вы не можете начинать темы
Вы не можете отвечать на сообщения
Вы не можете редактировать свои сообщения
Вы не можете удалять свои сообщения
Вы не можете голосовать в опросах
Вы не можете прикреплять файлы к сообщениям
Вы не можете скачивать файлы