Угрызения совести / Fire of Conscience / For lung (Данте Лам / Dante Lam) [2010, Гонконг, Китай, боевик, криминал, детектив, HDRip] DVO

Ответить на тему
 
Автор Сообщение

user ®

Стаж: 13 лет

Сообщений: 15071

Пост Пост: #1 от 16-Июл-2014 01:35

[Цитировать]

Угрызения совести / Fire of Conscience / For lung- -Страна: Гонконг, Китай
Жанр: боевик, криминал, детектив
Год выпуска: 2010
Продолжительность: 01:45:57-Перевод: Любительский (двухголосый закадровый) фансаб-группа ["Альянс"]-Cубтитры: нет
Оригинальная аудиодорожка: нет
Режиссер: Данте Лам / Dante Lam
В ролях: Леон Лай, Ричи Рен, Ван Бао Кван, Вивиан Су, Кай Чи Лью, Мишель Йе, Чарльз Йинг, Кай Тан, Уилфред Лау, Ян Тэнг...
Описание: История полицейского, которого мучает совесть из-за смерти жены. С момента её гибели он пытается найти её убийцу, но все безрезультатно. Терзаемый ненавистью к убийце и невозможностью найти его, он все сильнее начинает ненавидеть самого себя. Но ему поручают дело, обычное на первый взгляд - убийство местной проститутки, расследуя которое он все больше понимает, что все куда сложнее, чем кажется, и за этим кроется нечто более серьезное, чем простое убийство.
Релиз от -
Семпл: http://multi-up.com/986616
Качество видео: HDRip
Формат видео: AVI
Видео: MPEG-4 Visual at 1521 Кбит/сек; 720 x 304 (2.368) at 24.000 fps
Аудио: AC-3 at 448 Кбит/сек; 6 каналов, 48,0 КГц
Автор -
MediaInfo
Общее
Полное имя : D:\Фильмы\Азиатские\Угрызения совести\Fire of Conscience.2010.HDRip.XviD.1400MB. rip by [Assassin's Creed].avi
Формат : AVI
Формат/Информация : Audio Video Interleave
Размер файла : 1,46 Гбайт
Продолжительность : 1 ч. 45 м.
Общий поток : 1978 Кбит/сек
Программа кодирования : VirtualDubMod 1.5.10.2 (build 2540/release)
Библиотека кодирования : VirtualDubMod build 2540/release
Видео
Идентификатор : 0
Формат : MPEG-4 Visual
Профиль формата : Advanced Simple@L5
Параметр BVOP формата : 1
Параметр QPel формата : Нет
Параметр GMC формата : Без точки перехода
Параметр матрицы формата : Default (MPEG)
Идентификатор кодека : XVID
Идентификатор кодека/Подсказка : XviD
Продолжительность : 1 ч. 45 м.
Битрейт : 1521 Кбит/сек
Ширина : 720 пикселей
Высота : 304 пикселя
Соотношение сторон : 2,35:1
Частота кадров : 24,000 кадра/сек
Цветовое пространство : YUV
Субдискретизация насыщенности : 4:2:0
Битовая глубина : 8 бит
Тип развёртки : Прогрессивная
Метод сжатия : С потерями
Бит/(Пиксели*Кадры) : 0.289
Размер потока : 1,13 Гбайт (77%)
Библиотека кодирования : XviD 1.2.1 (UTC 2008-12-04)
Аудио
Идентификатор : 1
Формат : AC-3
Формат/Информация : Audio Coding 3
Расширение режима : CM (complete main)
Параметр Endianness формата : Big
Идентификатор кодека : 2000
Продолжительность : 1 ч. 45 м.
Вид битрейта : Постоянный
Битрейт : 448 Кбит/сек
Каналы : 6 каналов
Расположение каналов : Front: L C R, Side: L R, LFE
Частота : 48,0 КГц
Битовая глубина : 16 бит
Метод сжатия : С потерями
Размер потока : 340 Мбайт (23%)
Выравнивание : Разделение по промежуткам
Продолжительность промежутка : 42 мс. (1,00 видеокадр)
Время предзагрузки промежутка : 500 мс.
Скриншот c названием фильма Скриншоты
Скачать

Скачать торрент! Угрызения совести / Fire of Conscience / For lung (Данте Лам / Dante Lam) [2010, Гонконг, Китай, боевик, криминал, детектив, HDRip] DVO

Как скачивать? · Что такое торрент? · Рейтинг и ограничения

Сайт не распространяет и не хранит электронные версии произведений, а лишь предоставляет доступ к создаваемому пользователями каталогу ссылок на торрент-файлы, которые содержат только списки хеш-сумм

[Профиль] [ЛС]
Показать сообщения:    
Ответить на тему

Текущее время: Сегодня 21:42

Часовой пояс: GMT + 4



Вы не можете начинать темы
Вы не можете отвечать на сообщения
Вы не можете редактировать свои сообщения
Вы не можете удалять свои сообщения
Вы не можете голосовать в опросах
Вы не можете прикреплять файлы к сообщениям
Вы не можете скачивать файлы