Берегите воду (Мстислав Купрач) [1982, мультфильм, DVDRip]

Ответить на тему
 
Автор Сообщение

user ®

Стаж: 7 лет 7 месяцев

Сообщений: 20008

Пост Пост: #1 от 15-Июл-2014 17:00

[Цитировать]

Берегите воду
Страна: CCCP
Производство: ТО Экран
Жанр: мультфильм
Продолжительность: 00:01:25
Год выпуска: 1982
Русские субтитры: нет
Режиссёр: Мстислав Купрач
Описание: Мультфильм, в жанре сатирического плаката, посвящен проблеме экономии воды.
Качество: DVDRip
Формат: AVI
Видео: 720x544 (1.32:1), 25 fps, XviD MPEG-4 ~2201 kbps avg, 0.225 bit/pixel
Аудио: 48.0 kHz, MPEG Layer 3, 2 ch, ~192.00 kbps avg
Субтитры: Отсутствуют

MediaInfo
ОбщееПолное имя : E:\1\мультики\Берегите воду 1982.aviФормат : AVIФормат/Информация : Audio Video InterleaveРазмер файла : 24,5 МбайтПродолжительность : 1 м. 25 с.Общий поток : 2403 Кбит/секПрограмма кодирования : VirtualDubMod 1.5.10.3 | www.virtualdub-fr.org || (build 2550/release)Библиотека кодирования : VirtualDubMod build 2550/release
ВидеоИдентификатор : 0Формат : MPEG-4 VisualПрофиль формата : Advanced Simple@L5Параметр BVOP формата : 2Параметр QPel формата : НетПараметр GMC формата : Без точки переходаПараметр матрицы формата : Default (H.263)Идентификатор кодека : XVIDИдентификатор кодека/Подсказка : XviDПродолжительность : 1 м. 25 с.Битрейт : 2201 Кбит/секШирина : 720 пикселейВысота : 544 пикселяСоотношение сторон : 4:3Частота кадров : 25,000 кадров/секЦветовое пространство : YUVСубдискретизация насыщенности : 4:2:0Битовая глубина : 8 битТип развёртки : ПрогрессивнаяМетод сжатия : С потерямиБит/(Пиксели*Кадры) : 0.225Размер потока : 22,4 Мбайт (92%)Библиотека кодирования : XviD 1.2.1 (UTC 2008-12-04)
АудиоИдентификатор : 1Формат : MPEG AudioВерсия формата : Version 1Профиль формата : Layer 3Идентификатор кодека : 55Идентификатор кодека/Подсказка : MP3Продолжительность : 1 м. 25 с.Вид битрейта : ПостоянныйБитрейт : 192 Кбит/секКаналы : 2 каналаЧастота : 48,0 КГцМетод сжатия : С потерямиРазмер потока : 1,95 Мбайт (8%)Выравнивание : Соединение по промежуткамПродолжительность промежутка : 40 мс. (1,01 видеокадр)Время предзагрузки промежутка : 504 мс.Библиотека кодирования : LAME3.99rНастройки программы : -m s -V 4 -q 0 -lowpass 18.6 -b 192
Скриншоты
Скачать

Скачать торрент!

Как скачивать? · Что такое торрент? · Рейтинг и ограничения

Сайт не распространяет и не хранит электронные версии произведений, а лишь предоставляет доступ к создаваемому пользователями каталогу ссылок на торрент-файлы, которые содержат только списки хеш-сумм

[Профиль] [ЛС]
Показать сообщения:    
Ответить на тему

Текущее время: Сегодня 11:45

Часовой пояс: GMT + 4



Вы не можете начинать темы
Вы не можете отвечать на сообщения
Вы не можете редактировать свои сообщения
Вы не можете удалять свои сообщения
Вы не можете голосовать в опросах
Вы не можете прикреплять файлы к сообщениям
Вы не можете скачивать файлы