Генеральский кубок / Generals Goblet (Чень Сяо Лэй /Chen Xiao Lei) [2014 г., Китай, драма, боевик, WEBRip] VO

Ответить на тему
 
Автор Сообщение

user ®

Стаж: 13 лет

Сообщений: 15071

Пост Пост: #1 от 15-Июл-2014 17:00

[Цитировать]

Генеральский кубок / Generals Goblet_____________________________________________________________________ Год выпуска: 2014
Производство: Китай
Жанр: драма, боевик
Перевод: Одноголосый закадровый [Виктор Береговых]
Субтитры: Китайские (вшитые)
Оригинальная дорожка: Отсутствует
Продолжительность: 01:29:15
Режиссер: Чень Сяо Лэй /Chen Xiao Lei
В ролях: Ван Хун Сян, Чунь Юй Шань, Пин Ань, Лесли Гуань, Ван Цзи, Ван Тун
Описание: Офицер японской армии Тай Цынь возжелал заполучить ценную реликвию - кубок, некогда принадлежащий генералу Хуну. Теперь сокровище хранится в доме мастера Хао, который не только преподает кунг-фу, но и занимается гончарным делом. Тай Цынь убивает мастера Хао, забирает кубок и теперь в его голове появляется новая мысль. Мастер Хао должен был передать свое гончарное мастерство, но кому, дочери или лучшему ученику Тун Хе. Тай Цынь объявляет на них охоту,но и молодые люди тоже не дремлют. Они намерены отомстить за отца и учителя...

Качество видео: WEBRip [сэмпл]
Видеокодек: XviD
Аудиокодек: MP3
Видео: 720x304 (2.37:1), 25 fps, XviD build 73, 1988 kbps avg, 0.36 bit/pixel
Аудио: 48 kHz, AC3 Dolby Digital, 2/0 (L,R) ch, 192 kbps
Рейтинг Скриншоты MediaInfo

Общее
Полное имя : C:\Users\User\Desktop\Generalskij kybok 2014.avi
Формат : AVI
Формат/Информация : Audio Video Interleave
Размер файла : 1,37 Гбайт
Продолжительность : 1 ч. 29 м.
Общий поток : 2190 Кбит/сек
Программа кодирования : VirtualDubMod 1.5.10.3 | www.virtualdub-fr.org || (build 2550/release)
Библиотека кодирования : VirtualDubMod build 2550/release
Видео
Идентификатор : 0
Формат : MPEG-4 Visual
Профиль формата : Advanced Simple@L5
Параметр BVOP формата : 1
Параметр QPel формата : Нет
Параметр GMC формата : Без точки перехода
Параметр матрицы формата : Выборочная
Идентификатор кодека : XVID
Идентификатор кодека/Подсказка : XviD
Продолжительность : 1 ч. 29 м.
Битрейт : 1988 Кбит/сек
Ширина : 720 пикселей
Высота : 304 пикселя
Соотношение сторон : 2,35:1
Частота кадров : 25,000 кадров/сек
Цветовое пространство : YUV
Субдискретизация насыщенности : 4:2:0
Битовая глубина : 8 бит
Тип развёртки : Прогрессивная
Метод сжатия : С потерями
Бит/(Пиксели*Кадры) : 0.363
Размер потока : 1,24 Гбайт (91%)
Библиотека кодирования : XviD 73
Аудио
Идентификатор : 1
Формат : AC-3
Формат/Информация : Audio Coding 3
Расширение режима : CM (complete main)
Параметр Endianness формата : Big
Идентификатор кодека : 2000
Продолжительность : 1 ч. 29 м.
Вид битрейта : Постоянный
Битрейт : 192 Кбит/сек
Каналы : 2 канала
Расположение каналов : Front: L R
Частота : 48,0 КГц
Битовая глубина : 16 бит
Метод сжатия : С потерями
Размер потока : 123 Мбайт (9%)
Выравнивание : Разделение по промежуткам
Продолжительность промежутка : 40 мс. (1,00 видеокадр)
Время предзагрузки промежутка : 500 мс.
Скачать

Скачать торрент! Генеральский кубок / Generals Goblet (Чень Сяо Лэй /Chen Xiao Lei) [2014 г., Китай, драма, боевик, WEBRip] VO

Как скачивать? · Что такое торрент? · Рейтинг и ограничения

Сайт не распространяет и не хранит электронные версии произведений, а лишь предоставляет доступ к создаваемому пользователями каталогу ссылок на торрент-файлы, которые содержат только списки хеш-сумм

[Профиль] [ЛС]
Показать сообщения:    
Ответить на тему

Текущее время: Сегодня 21:58

Часовой пояс: GMT + 4



Вы не можете начинать темы
Вы не можете отвечать на сообщения
Вы не можете редактировать свои сообщения
Вы не можете удалять свои сообщения
Вы не можете голосовать в опросах
Вы не можете прикреплять файлы к сообщениям
Вы не можете скачивать файлы