Хемлок Гроув / Hemlock Grove (Сезон 2, Серий 10 из 10) [2014 г., "США", ужасы, триллер, детектив, WEBRip] MVO (NewStudio)

Ответить на тему
 
Автор Сообщение

LORN-V ®

Пол:

Стаж: 4 года 6 месяцев

Сообщений: 1186

Откуда: Munchen

Пост Пост: #1 от 15-Июл-2014 14:20

[Цитировать]

Хемлок Гроув / Hemlock Grove
«Монстр - внутри»
- -Основная информация:
Год выпуска: 2014
Страна: США
Жанр: ужасы, триллер, детектив
Серия: Серия 1-2 из 10
Сезон: 2
Продолжительность: ~00:51:21(Серия)
Перевод: Профессиональный (многоголосый закадровый) (NewStudio)
Режиссер: Деран Сарафян / Deran Sarafian, Дэвид Петрарка / David Petrarca, Флория Сиджизмонди / Floria Sigismondi
-В ролях:
Фамке Янссен (Olivia Godfrey), Лэндон Либуарон (Peter Rumancek), Билл Скарсгард (Roman Godfrey), Пенелопа Митчелл (Letha Godfrey), Фрея Тингли (Christina Wendall), Дюгрей Скотт (Norman Godfrey), Николь Буавен (Shelley Godfrey), Тед Дикстра (Francis Pullman, хроника), Аарон Дуглас (Sheriff Tom Sworn), Кэндис МакКлюр (Dr. Clementine Chasseur), Джоэль де ла Фуэнте (Dr. Johann Pryce, хроника), Лори Фортье (Marie Godfrey)-Описание:
События сериала разворачиваются в небольшом американском городке Хемлок Гроув, жители которого находят искусанный труп молодой девушки. Они понимают, что в городе появилась невиданная раньше сила в лице оборотней. Смогут ли жители Хемлок Гроув справиться с заразой?
-Доп. информация:
Качество: WEBRip
Формат: AVI
Видео кодек: XviD
Аудио кодек: MP3
Видео: 1228 Кбит/сек, 720*400 (16:9), в 23,976 кадра/сек, MPEG-4 Visual (XviD)
Аудио №1: Русский 128 Кбит/сек, 48,0 КГц, 2 канала, MPEG Audio (MP3)
Аудио №2: Английскийц 128 Кбит/сек, 48,0 КГц, 2 канала, MPEG Audio (MP3)

Внимание!: Раздача ведётся путём добавления новых серий:

Внимание! Раздача ведётся путём добавления новых серий; при каждом добавлении создаётся новый торрент. Чтобы начать докачку новой серии, пользователям необходимо сделать следующее:
(1) остановить скачивание,
(2) удалить старый торрент у себя из клиента (старые серии удалять не надо),
(3) скачать новый торрент и запустить его у себя в клиенте вместо старого, при этом указать клиенту путь в старую папку куда и должно происходить скачивание новых серий.
Ваш клиент при этом должен произвести хеширование (проверку) старой папки (если не производит сам - помогите ему сделать это), и будет докачивать только те серии которых у вас ещё нет. Старые серии при этом не удаляются, а продолжают раздаваться!
Eсли вы уже удалили старые серии, то предотвратить повторную закачку старых серий можно, отжав галочку в соответсвующих местах при запуске нового торрента. По возможности, желательно не удалять старые серии как можно дольше чтобы релизёр не столько продолжал раздавать старые серии, а смог сконцентрироваться на новых.

MI:

Общее
Полное имя : H:\ТОРРЕНТЫ\Хемлок Гроув(Сезон 2)\Hemlock.Grove.s02e01.WEBRip.NewStudio.TV.avi
Формат : AVI
Формат/Информация : Audio Video Interleave
Размер файла : 550 Мбайт
Длительность : 51 м.
Общий поток : 1498 Кбит/сек
Программа кодирования : VirtualDubMod 1.5.10.2 (build 2540/release)
Библиотека кодирования : VirtualDubMod build 2540/release
Видео
Идентификатор : 0
Формат : MPEG-4 Visual
Профиль формата : Advanced Simple@L5
Параметр BVOP формата : 2
Параметр QPel формата : Нет
Параметр GMC формата : Без точки перехода
Параметр матрицы формата : Default (MPEG)
Идентификатор кодека : XVID
Идентификатор кодека/Подсказка : XviD
Длительность : 51 м.
Битрейт : 1228 Кбит/сек
Ширина : 720 пикселей
Высота : 400 пикселей
Соотношение сторон : 16:9
Частота кадров : 23,976 кадра/сек
Цветовое пространство : YUV
Субдискретизация насыщенности : 4:2:0
Битовая глубина : 8 бит
Тип развёртки : Прогрессивная
Метод сжатия : С потерями
Бит/(Пиксели*Кадры) : 0.178
Размер потока : 451 Мбайт (82%)
Библиотека кодирования : XviD 64
Аудио #1
Идентификатор : 1
Формат : MPEG Audio
Версия формата : Version 1
Профиль формата : Layer 3
Режим : Joint stereo
Расширение режима : MS Stereo
Идентификатор кодека : 55
Идентификатор кодека/Подсказка : MP3
Длительность : 51 м.
Вид битрейта : Постоянный
Битрейт : 128 Кбит/сек
Каналы : 2 канала
Частота : 48,0 КГц
Метод сжатия : С потерями
Размер потока : 47,0 Мбайт (9%)
Выравнивание : Соединение по промежуткам
Длительность промежутка : 42 мс. (1,00 видеокадр)
Время предзагрузки промежутка : 504 мс.
Аудио #2
Идентификатор : 2
Формат : MPEG Audio
Версия формата : Version 1
Профиль формата : Layer 3
Режим : Joint stereo
Расширение режима : MS Stereo
Идентификатор кодека : 55
Идентификатор кодека/Подсказка : MP3
Длительность : 51 м.
Вид битрейта : Постоянный
Битрейт : 128 Кбит/сек
Каналы : 2 канала
Частота : 48,0 КГц
Метод сжатия : С потерями
Размер потока : 47,0 Мбайт (9%)
Выравнивание : Соединение по промежуткам
Длительность промежутка : 42 мс. (1,00 видеокадр)
Время предзагрузки промежутка : 504 мс.
Библиотека кодирования : LAME3.99r
Настройки программы : -m j -V 4 -q 2 -lowpass 17 -b 128

Скриншоты:

Скачать

Скачать торрент!

Как скачивать? · Что такое торрент? · Рейтинг и ограничения

Сайт не распространяет и не хранит электронные версии произведений, а лишь предоставляет доступ к создаваемому пользователями каталогу ссылок на торрент-файлы, которые содержат только списки хеш-сумм


_________________
[Профиль] [ЛС]
Показать сообщения:    
Ответить на тему

Текущее время: Сегодня 04:14

Часовой пояс: GMT + 4



Вы не можете начинать темы
Вы не можете отвечать на сообщения
Вы не можете редактировать свои сообщения
Вы не можете удалять свои сообщения
Вы не можете голосовать в опросах
Вы не можете прикреплять файлы к сообщениям
Вы не можете скачивать файлы