Раскрашенная кожа 2: Воскрешение / Painted Skin: The Resurrection / Hua Pi 2 (Вуершан / Wuershan) [2012, Китай, фэнтези, боевик, триллер, драма, HDRip] DVO (НТВ+)

Ответить на тему
 
Автор Сообщение

user ®

Стаж: 13 лет

Сообщений: 15071

Пост Пост: #1 от 14-Июл-2014 19:45

[Цитировать]

Раскрашенная кожа 2: Воскрешение / Painted Skin: The Resurrection / Hua Pi 2
Страна: Китай
Жанр: фэнтези, боевик, триллер, драма
Год выпуска: 2012
Продолжительность: 02:11:32
Перевод: Профессиональный (двухголосый закадровый) НТВ+
Cубтитры: нет
Режиссер: Вуершан / Wuershan
В ролях: Чжоу Сюнь, Чэнь Кунь, Чжао Вэй, Янг Ми, Фэн-Шаофенг, Фэй Сян, Чэнь Тинцзя
Описание: Чтобы стать смертным демон должен прожить на земле несколько сот лет, но и этого недостаточно, чтобы ощутить весь спектр человеческих эмоций и подлинную экзистенциальную грусть. Для получения этих бонусов демон должен найти человека, готового пожертвовать собственными чувствами и собственной бессмертной душой.
Сэмпл: http://multi-up.com/986298
Качество видео: HDRip (BDRip 720p)
Формат видео: AVI
Видео: XviD, 1389 Kbps, 720 х304 pixels, 23.976 fps
Аудио: AC3, 192 Kbps, 2 channels, Front: L R, 48.0 KHz, 16 bits

MediaInfo
eneral
Complete name : D:\kirovtorrent\Painted.Skin.2.2012.HDRip.1.45Gb.avi
Format : AVI
Format/Info : Audio Video Interleave
File size : 1.46 GiB
Duration : 2h 11mn
Overall bit rate : 1 590 Kbps
Writing application : VirtualDubMod 1.5.10.2 (build 2540/release)
Writing library : VirtualDubMod build 2540/release
Video
ID : 0
Format : MPEG-4 Visual
Format profile : Advanced Simple@L5
Format settings, BVOP : Yes
Format settings, QPel : No
Format settings, GMC : No warppoints
Format settings, Matrix : Default (MPEG)
Codec ID : XVID
Codec ID/Hint : XviD
Duration : 2h 11mn
Bit rate : 1 389 Kbps
Width : 720 pixels
Height : 304 pixels
Display aspect ratio : 2.35:1
Frame rate : 23.976 fps
Color space : YUV
Chroma subsampling : 4:2:0
Bit depth : 8 bits
Scan type : Progressive
Compression mode : Lossy
Bits/(Pixel*Frame) : 0.265
Stream size : 1.28 GiB (87%)
Writing library : XviD 1.2.1 (UTC 2008-12-04)
Audio
ID : 1
Format : AC-3
Format/Info : Audio Coding 3
Mode extension : CM (complete main)
Format settings, Endianness : Big
Codec ID : 2000
Duration : 2h 11mn
Bit rate mode : Constant
Bit rate : 192 Kbps
Channel(s) : 2 channels
Channel positions : Front: L R
Sampling rate : 48.0 KHz
Bit depth : 16 bits
Compression mode : Lossy
Stream size : 181 MiB (12%)
Alignment : Split accross interleaves
Interleave, duration : 42 ms (1.00 video frame)
Interleave, preload duration : 500 ms
Скриншот c названием фильма Скриншоты
Скачать

Скачать торрент! Раскрашенная кожа 2: Воскрешение / Painted Skin: The Resurrection / Hua Pi 2 (Вуершан / Wuershan) [2012, Китай, фэнтези, боевик, триллер, драма, HDRip] DVO (НТВ+)

Как скачивать? · Что такое торрент? · Рейтинг и ограничения

Сайт не распространяет и не хранит электронные версии произведений, а лишь предоставляет доступ к создаваемому пользователями каталогу ссылок на торрент-файлы, которые содержат только списки хеш-сумм

[Профиль] [ЛС]
Показать сообщения:    
Ответить на тему

Текущее время: Сегодня 21:32

Часовой пояс: GMT + 4



Вы не можете начинать темы
Вы не можете отвечать на сообщения
Вы не можете редактировать свои сообщения
Вы не можете удалять свои сообщения
Вы не можете голосовать в опросах
Вы не можете прикреплять файлы к сообщениям
Вы не можете скачивать файлы