Карнавал по-нашему (Леонид Мазор) [2014, Россия, комедия, музыкальный, HDTVRip 720p]

Ответить на тему
 
Автор Сообщение

user ®

Стаж: 7 лет 7 месяцев

Сообщений: 20008

Пост Пост: #1 от 14-Июл-2014 19:45

[Цитировать]

Карнавал по-нашему
Выпущено: Россия, Единая медиа группа
Жанр: комедия, музыкальный
Год выпуска: 2014
Продолжительность: 00:43:29 + 00:44:01
Субтитры: нет
Режиссер: Леонид Мазор
В ролях: Александр Асташёнок, Татьяна Рыбинец, Валерий Афанасьев, Ирина Бякова, Анатолий Калмыков
Описание: История о молодом человеке, живущем в городском мире, со своими законами и увлечениями. Эти «увлечения» приводят героя к ситуации, когда жизнь становится дороже любых приключений. Случайная встреча с простой сельской девушкой в корне меняет всю его жизнь.
Главную роль в ленте играет Александр Асташенок - российский музыкант, актер, бывший солист группы "Корни" и победитель первой "Фабрики Звезд".

Автор рипа / записи: fanatus
Исходник: Запись с телеканала РОССИЯ HD
Качество: HDTVRip 720p
Формат: MKV
Видео кодек: H.264
Аудио кодек: AC3
Видео: MPEG-4 AVC, 4148 kbps , 1280x720 (16:9), 25.000 fps, 0.180 bit/pixel
Аудио: AC3, 2 ch, 48 kHz, 192 kbps
MediaInfo
General
Unique ID : 174435250243078539058326839015487297104 (0x833B01D68C1E6024B123BE81C663D650)
Complete name : E:\Karnaval_po_nashemu.2014.x264.HDTVRip.720p.fanatus\1_chast.mkv
Format : Matroska
Format version : Version 2
File size : 1.32 GiB
Duration : 43mn 29s
Overall bit rate : 4 342 Kbps
Movie name : Karnaval po-nashemu (2014) - fanatus
Encoded date : UTC 2014-07-12 09:05:13
Writing application : mkvmerge v3.4.0 ('Rapunzel') сборка от May 15 2010 09:38:20
Writing library : libebml v0.8.0 + libmatroska v0.9.0
Video
ID : 1
Format : AVC
Format/Info : Advanced Video Codec
Format profile : High@L4.1
Format settings, CABAC : Yes
Format settings, ReFrames : 9 frames
Codec ID : V_MPEG4/ISO/AVC
Duration : 43mn 29s
Bit rate : 4 148 Kbps
Width : 1 280 pixels
Height : 720 pixels
Display aspect ratio : 16:9
Frame rate : 25.000 fps
Color space : YUV
Chroma subsampling : 4:2:0
Bit depth : 8 bits
Scan type : Progressive
Bits/(Pixel*Frame) : 0.180
Stream size : 1.23 GiB (94%)
Title : 1 chast
Writing library : x264 core 142 r2431 ac76440
Encoding settings : cabac=1 / ref=9 / deblock=1:-3:-3 / analyse=0x3:0x113 / me=umh / subme=11 / psy=1 / psy_rd=1.00:0.05 / mixed_ref=1 / me_range=48 / chroma_me=1 / trellis=2 / 8x8dct=1 / cqm=0 / deadzone=21,11 / fast_pskip=0 / chroma_qp_offset=-3 / threads=16 / lookahead_threads=4 / sliced_threads=0 / nr=0 / decimate=0 / interlaced=0 / bluray_compat=0 / constrained_intra=0 / bframes=12 / b_pyramid=2 / b_adapt=2 / b_bias=0 / direct=3 / weightb=1 / open_gop=0 / weightp=2 / keyint=250 / keyint_min=25 / scenecut=40 / intra_refresh=0 / rc=2pass / mbtree=0 / bitrate=4148 / ratetol=1.0 / qcomp=0.65 / qpmin=0 / qpmax=69 / qpstep=4 / cplxblur=20.0 / qblur=0.5 / ip_ratio=1.40 / pb_ratio=1.30 / aq=1:0.90
Language : Russian
Default : Yes
Forced : No
Audio
ID : 2
Format : AC-3
Format/Info : Audio Coding 3
Mode extension : CM (complete main)
Format settings, Endianness : Big
Codec ID : A_AC3
Duration : 43mn 29s
Bit rate mode : Constant
Bit rate : 192 Kbps
Channel(s) : 2 channels
Channel positions : Front: L R
Sampling rate : 48.0 KHz
Bit depth : 16 bits
Compression mode : Lossy
Stream size : 59.7 MiB (4%)
Language : Russian
Default : Yes
Forced : No
Скриншот c названием фильма Скриншоты
Скачать

Скачать торрент!

Как скачивать? · Что такое торрент? · Рейтинг и ограничения

Сайт не распространяет и не хранит электронные версии произведений, а лишь предоставляет доступ к создаваемому пользователями каталогу ссылок на торрент-файлы, которые содержат только списки хеш-сумм

[Профиль] [ЛС]
Показать сообщения:    
Ответить на тему

Текущее время: Сегодня 00:42

Часовой пояс: GMT + 4



Вы не можете начинать темы
Вы не можете отвечать на сообщения
Вы не можете редактировать свои сообщения
Вы не можете удалять свои сообщения
Вы не можете голосовать в опросах
Вы не можете прикреплять файлы к сообщениям
Вы не можете скачивать файлы