Внеземной театр / Внеземной / E.T.X.R. / ETXR (Тревор Сэндс / Travor Sands) [2014, США, фантастика, WEB-DL] DVO (HamsterStudio) + Sub Rus + Original Eng

Ответить на тему
 
Автор Сообщение

user ®

Стаж: 7 лет 7 месяцев

Сообщений: 20008

Пост Пост: #1 от 14-Июл-2014 19:45

[Цитировать]

Внеземной театр / Внеземной / E.T.X.R. / ETXR
Страна: США
Жанр: фантастика
Год выпуска: 2014
Продолжительность: 01:17:54
Перевод: Любительский (двухголосый закадровый) HamsterStudio
Cубтитры: русские
Оригинальная аудиодорожка: английский
Режиссер: Тревор Сэндс / Travor Sands
В ролях: Калеб Хант, Джереми Люк, Леви Филер, Брайан Хоуи, Линдси Морган, Ксандер Беркли, Дэн Донохью, Питер Дуглас, Брендан Хант, Мэтт Нолан
Описание: Диджею Биксу от своего давнего приятеля достаётся легендарное изобретение Никола Теслы - тесласкоп, который, по легенде, способен принимать сигналы из внеземных миров.
Доп. информация:
Озвучка: Андрей Жариков и Юлия Реутова
Автор перевода: Antonio
Монтаж и сведение звука: Роман Мырон
Сэмпл: http://multi-up.com/985393
Качество видео: WEB-DL
Формат видео: MKV
Видео: MPEG4 Video (H264) 640x480 (853:480) 23.98fps 1370 Kbps
Аудио 1: Dolby AC3 48000Hz stereo 192 Kbps
Аудио 2: Dolby AC3 48000Hz 6 Audio Channel 384 Kbps
Формат субтитров: softsub (SRT)
Доп. информация о субтитрах: Antonio
MediaInfo
General
Unique ID : 201682408740644146531190661201402883368 (0x97BA9E786BB820C2A78B3E390DBD6D28)
Complete name : D:\TORRENTS\Внеземной.театр.E.T.X.R.2014.Rus.Eng.Subs.mkv
Format : Matroska
Format version : Version 2
File size : 1.08 GiB
Duration : 1h 17mn
Overall bit rate : 1 986 Kbps
Encoded date : UTC 2014-07-10 08:09:58
Writing application : mkvmerge v4.0.0 ('The Stars were mine') built on Jun 6 2010 16:18:42
Writing library : libebml v1.0.0 + libmatroska v1.0.0
Video
ID : 1
Format : AVC
Format/Info : Advanced Video Codec
Format profile : Baseline@L3.0
Format settings, CABAC : No
Format settings, ReFrames : 1 frame
Codec ID : V_MPEG4/ISO/AVC
Duration : 1h 17mn
Bit rate : 1 370 Kbps
Width : 640 pixels
Height : 480 pixels
Display aspect ratio : 16:9
Frame rate mode : Constant
Frame rate : 23.976 fps
Color space : YUV
Chroma subsampling : 4:2:0
Bit depth : 8 bits
Scan type : Progressive
Bits/(Pixel*Frame) : 0.186
Stream size : 763 MiB (69%)
Language : English
Default : No
Forced : No
Color primaries : BT.601 NTSC
Transfer characteristics : BT.709
Matrix coefficients : BT.601
Audio #1
ID : 2
Format : AC-3
Format/Info : Audio Coding 3
Mode extension : CM (complete main)
Format settings, Endianness : Big
Codec ID : A_AC3
Duration : 1h 17mn
Bit rate mode : Constant
Bit rate : 192 Kbps
Channel(s) : 2 channels
Channel positions : Front: L R
Sampling rate : 48.0 KHz
Bit depth : 16 bits
Compression mode : Lossy
Stream size : 107 MiB (10%)
Title : HamsterStudio
Language : Russian
Default : Yes
Forced : Yes
Audio #2
ID : 3
Format : AC-3
Format/Info : Audio Coding 3
Mode extension : CM (complete main)
Format settings, Endianness : Big
Codec ID : A_AC3
Duration : 1h 17mn
Bit rate mode : Constant
Bit rate : 384 Kbps
Channel(s) : 6 channels
Channel positions : Front: L C R, Side: L R, LFE
Sampling rate : 48.0 KHz
Bit depth : 16 bits
Compression mode : Lossy
Stream size : 214 MiB (19%)
Title : Original
Language : English
Default : No
Forced : No
Text
ID : 4
Format : UTF-8
Codec ID : S_TEXT/UTF8
Codec ID/Info : UTF-8 Plain Text
Title : Antonio
Language : Russian
Default : No
Forced : No
Menu
00:00:00.000 : en:An Opportunity from the Past
00:11:28.000 : en:The Scope
00:21:18.000 : en:Play It Again
00:29:16.000 : en:The Offer
00:36:15.000 : en:They Arrive
00:45:55.000 : en:A Dream Within a Dream
00:52:57.000 : en:Journey to the Desert
01:03:47.000 : en:The Completion
01:14:57.000 : en:End Credits
Скриншот c названием фильма Скриншоты
Скачать

Скачать торрент!

Как скачивать? · Что такое торрент? · Рейтинг и ограничения

Сайт не распространяет и не хранит электронные версии произведений, а лишь предоставляет доступ к создаваемому пользователями каталогу ссылок на торрент-файлы, которые содержат только списки хеш-сумм

[Профиль] [ЛС]
Показать сообщения:    
Ответить на тему

Текущее время: Сегодня 23:50

Часовой пояс: GMT + 4



Вы не можете начинать темы
Вы не можете отвечать на сообщения
Вы не можете редактировать свои сообщения
Вы не можете удалять свои сообщения
Вы не можете голосовать в опросах
Вы не можете прикреплять файлы к сообщениям
Вы не можете скачивать файлы