Томми / Tommy (Тарик Салех / Tarik Saleh) [2014, Швеция, Триллер, HDTVRip-AVC] VO (Doctor Joker) + Original Swe

Ответить на тему
 
Автор Сообщение

user ®

Стаж: 7 лет 7 месяцев

Сообщений: 20008

Пост Пост: #1 от 14-Июл-2014 11:00

[Цитировать]

-Томми / Tommy«When the queen returns, she sets the city on fire»- Страна: Швеция
Жанр: Триллер
Год выпуска: 2014
Продолжительность: 01:32:02
Перевод: Одноголосый закадровый [Doctor_Joker]
Cубтитры: нет
Оригинальная аудиодорожка: шведский
IMDB-рейтинг: 5.90 (73)
Режиссер: Тарик Салех / Tarik Saleh
В ролях: Ликке Ли, Моа Гаммель, Ула Рапас, Алексей Манвелов, Йохан Рабеус, Инец Бюкнер, Эва Фрёлинг, Ингела Ольссон, Александр Стокс, Аззан Як и др.
Описание: Неделя до Рождества. Эстель приземляется в аэропорту Стокгольма «Арланда». Годом ранее, она подалась в бега вместе с мужем Томми и их дочерью после того, как Томми принял участие в одном из крупнейших ограблений за всю историю Швеции. Эстель находит старых подельников Томми и утверждает, что он возвращается, чтобы вернуть свою долю добычи. Этот слух распространяется, как лесной пожар, по всему преступному миру Стокгольма. Если Томми вернется, город содрогнется от взрывов. И даже если нет... нечто еще более ужасное может произойти. ТОММИ — это история женщины, которая стоит за не столько за спиной мужчины, сколько за его именем и репутацией. Современная легенда о возвращении Королевы в город, который сгорел во время её отсутствия. История о двух сестрах, двух матерях, трех дочерях и их мужчинах.
Сэмпл: http://multi-up.com/986131
Качество: HDTVRip-AVC
Формат: MKV
Видео: AVC, 720x390 (1.85:1), 25.000 fps, 1 900 Kbps, 8 bits
Аудио: 48 KHz, AАС, 2 channels, 192 kbps
Аудио 2: 48 KHz, AАС, 2 channels, 192 kbps - Оригинал
MediaInfo
Общее
Уникальный идентификатор : 186265049865958340618425742398623795926 (0x8C2157FD929FAA64871AEACF1DB34AD6)
Полное имя : D:\фильмы\Томми.mkv
Формат : Matroska
Версия формата : Version 4 / Version 2
Размер файла
: 1,32 Гбайт
Продолжительность : 1 ч. 30 м.
Общий поток : 2092 Кбит/сек
Название фильма : Релиз Переулка Переводмана
Дата кодирования : UTC 2014-07-03 17:44:27
Программа кодирования : mkvmerge v6.0.0 ('Coming Up For Air') built on Jan 20 2013 09:52:00
Библиотека кодирования : libebml v1.3.0 + libmatroska v1.4.0
Видео
Идентификатор : 1
Формат : AVC
Формат/Информация : Advanced Video Codec
Профиль формата : High@L4.1
Параметр CABAC формата : Да
Параметр ReFrames формата : 9 кадров
Идентификатор кодека : V_MPEG4/ISO/AVC
Продолжительность : 1 ч. 30 м.
Битрейт : 1900 Кбит/сек
Ширина : 720 пикселей
Высота : 390 пикселей
Соотношение сторон : 1,85:1
Режим частоты кадров : Постоянный
Частота кадров : 25,000 кадров/сек
Цветовое пространство : YUV
Субдискретизация насыщенности : 4:2:0
Битовая глубина : 8 бит
Тип развёртки : Прогрессивная
Бит/(Пиксели*Кадры) : 0.271
Размер потока : 1,17 Гбайт (89%)
Заголовок : x264
Библиотека кодирования : x264 core 142 r2409 d6b4e63
Настройки программы : cabac=1 / ref=9 / deblock=1:-3:-3 / analyse=0x3:0x113 / me=umh / subme=10 / psy=1 / psy_rd=1.00:0.00 / mixed_ref=1 / me_range=48 / chroma_me=1 / trellis=2 / 8x8dct=1 / cqm=0 / deadzone=21,11 / fast_pskip=1 / chroma_qp_offset=-2 / threads=6 / lookahead_threads=1 / sliced_threads=0 / nr=0 / decimate=1 / interlaced=0 / bluray_compat=0 / constrained_intra=0 / bframes=8 / b_pyramid=2 / b_adapt=2 / b_bias=0 / direct=1 / weightb=1 / open_gop=0 / weightp=2 / keyint=250 / keyint_min=25 / scenecut=40 / intra_refresh=0 / rc_lookahead=50 / rc=2pass / mbtree=1 / bitrate=1900 / ratetol=1.0 / qcomp=0.60 / qpmin=0 / qpmax=69 / qpstep=4 / cplxblur=20.0 / qblur=0.5 / ip_ratio=1.40 / aq=1:1.00
Язык : English
Default : Да
Forced : Нет
Основные цвета : BT.709
Характеристики трансфера : BT.709
Коэффициенты матрицы : BT.709
Аудио
Идентификатор : 2
Формат : AC-3
Формат/Информация : Audio Coding 3
Расширение режима : CM (complete main)
Параметр Endianness формата : Big
Идентификатор кодека : A_AC3
Продолжительность : 1 ч. 30 м.
Вид битрейта : Постоянный
Битрейт : 192 Кбит/сек
Каналы : 2 канала
Расположение каналов : Front: L R
Частота : 48,0 КГц
Битовая глубина : 16 бит
Метод сжатия : С потерями
Размер потока : 124 Мбайт (9%)
Заголовок : AVO Doctor Joker
Язык : Russian
Default : Да
Forced : Нет
Скриншот c названием фильма Скриншоты
Скачать

Скачать торрент!

Как скачивать? · Что такое торрент? · Рейтинг и ограничения

Сайт не распространяет и не хранит электронные версии произведений, а лишь предоставляет доступ к создаваемому пользователями каталогу ссылок на торрент-файлы, которые содержат только списки хеш-сумм

[Профиль] [ЛС]
Показать сообщения:    
Ответить на тему

Текущее время: Сегодня 12:36

Часовой пояс: GMT + 4



Вы не можете начинать темы
Вы не можете отвечать на сообщения
Вы не можете редактировать свои сообщения
Вы не можете удалять свои сообщения
Вы не можете голосовать в опросах
Вы не можете прикреплять файлы к сообщениям
Вы не можете скачивать файлы