Карнавал по-нашему / Серии: 1-2 из 2 (Леонид Мазор) [2013, Комедия, музыкальный фильм, HDTV 1080i]

Ответить на тему
 
Автор Сообщение

user ®

Стаж: 7 лет 7 месяцев

Сообщений: 20008

Пост Пост: #1 от 13-Июл-2014 23:10

[Цитировать]

Карнавал по-нашему
Год выпуска: 2013
Производство: Россия, "Единая медиа группа"
Жанр: Комедия, музыкальный фильм
Продолжительность: 00:45:00
Субтитры: нет
Режиссёр:Леонид Мазор
В ролях: Александр Асташёнок, Татьяна Рыбинец, Валерий Афанасьев, Ирина Бякова, Анатолий Калмыков
Описание: История о молодом человеке, живущем в городском мире, со своими законами и увлечениями. Эти «увлечения» приводят героя к ситуации, когда жизнь становится дороже любых приключений. Случайная встреча с простой сельской девушкой в корне меняет всю его жизнь.
Главную роль в ленте играет Александр Асташенок - российский музыкант, актер, бывший солист группы "Корни" и победитель первой "Фабрики Звезд".

Качество: HDTV 1080i
Формат: TS
Видео кодек: H.264
Аудио кодек: MP2
Видео: MPEG4 Video (H264) 1920x1080, ~ 7930 Кбит/с, 25.00fps 0.153 bit/pixel
Аудио: MP2, 2 канала, 48,0 КГц, ~256 kbps
Сторонней рекламы нет!
MI
ОбщееИдентификатор : 1 (0x1)Полное имя : H:\Карнавал по-нашему HDTV 1080i\Карнавал по-нашему 02_серия_HDTV_1080i.tsФормат : MPEG-TSРазмер файла : 2,63 ГбайтПродолжительность : 43 м.Общий поток : 8615 Кбит/секМаксимальный общий битрейт : 35,5 Мбит/сек
ВидеоИдентификатор : 4113 (0x1011)Идентификатор меню : 1 (0x1)Формат : AVCФормат/Информация : Advanced Video CodecПрофиль формата : High@L4.0Параметр CABAC формата : ДаПараметр ReFrames формата : 4 кадраИдентификатор кодека : 27Продолжительность : 43 м.Вид битрейта : ПеременныйБитрейт : 7930 Кбит/секМаксимальный битрейт : 40,0 Мбит/секШирина : 1920 пикс.Высота : 1080 пикс.Соотношение сторон : 16:9Частота кадров : 25,000 кадр/секЦветовое пространство : YUVПодвыборка цветности : 4:2:0Битовая глубина : 8 битТип развёртки : MBAFFБит/(Пиксели*Кадры) : 0.153Размер потока : 2,42 Гбайт (92%)
АудиоИдентификатор : 4352 (0x1100)Идентификатор меню : 1 (0x1)Формат : MPEG AudioВерсия формата : Version 1Профиль формата : Layer 2Идентификатор кодека : 4Продолжительность : 43 м.Вид битрейта : ПостоянныйБитрейт : 256 Кбит/секКаналы : 2 каналаЧастота : 48,0 КГцМетод сжатия : С потерямиРазмер потока : 79,9 Мбайт (3%)Язык : Russian
Раздача группы:
Отдельное спасибо nikolspup за предоставление материала.
Внимание ! Раздача ведётся путём добавления новых серий
Внимание! Раздача ведётся путём добавления новых серий; при каждом добавлении создётся новый торрент. Чтобы начать докачку новой серии, пользователям необходимо сделать следующее:
(1) остановить скачивание,
(2) удалить старый торрент у себя из клиента (старые серии удалять не надо),
(3) скачать новый торрент и запустить его у себя в клиенте вместо старого, при этом указать клиенту путь в старую папку куда и должно происходить скачивание новых серий.
Ваш клиент при этом должен произвести хеширование (проверку) старой папки (если не производит сам - помогите ему сделать это), и будет докачивать только те серии которых у вас ещё нет. Старые серии при этом не удаляются, а продолжают раздаваться!
Eсли вы уже удалили старые серии, то предотвратить повторную закачку старых серий можно, отжав галочку в соответсвующих местах при запуске нового торрента. По возможности, желательно не удалять старые серии как можно дольше чтобы релизёр не столько продолжал раздавать старые серии, а смог сконцентрироваться на новых.
ВНИМАНИЕ! ТОРРЕНТ ПЕРЕЗАЛИТ! ДОБАВЛЕНА 2-ая СЕРИИ!Скриншоты
Скачать

Скачать торрент!

Как скачивать? · Что такое торрент? · Рейтинг и ограничения

Сайт не распространяет и не хранит электронные версии произведений, а лишь предоставляет доступ к создаваемому пользователями каталогу ссылок на торрент-файлы, которые содержат только списки хеш-сумм

[Профиль] [ЛС]
Показать сообщения:    
Ответить на тему

Текущее время: Сегодня 01:09

Часовой пояс: GMT + 4



Вы не можете начинать темы
Вы не можете отвечать на сообщения
Вы не можете редактировать свои сообщения
Вы не можете удалять свои сообщения
Вы не можете голосовать в опросах
Вы не можете прикреплять файлы к сообщениям
Вы не можете скачивать файлы